General

Unique ID : 4694061408413839423597287294454415432 (0x3880B188245499A42B55A93286B4048)
Complete name : /movies/1/1917_2019_1080p_BluRay_Full_HD_AC3_iFT_30NAMA.mkv
Format : Matroska
Format version : Version 4
File size : 15.2 GiB
Duration : 1 h 58 min
Overall bit rate : 18.3 Mb/s
Encoded date : UTC 2020-03-14 16:04:11
Writing application : mkvmerge v41.0.0 ('Smarra') 64-bit
Writing library : libebml v1.3.9 + libmatroska v1.5.2

Video

ID : 1
Format : AVC
Format/Info : Advanced Video Codec
Format profile : High@L4.1
Format settings : CABAC / 5 Ref Frames
Format settings, CABAC : Yes
Format settings, ReFrames : 5 frames
Codec ID : V_MPEG4/ISO/AVC
Duration : 1 h 58 min
Bit rate : 16.4 Mb/s
Width : 1 920 pixels
Height : 804 pixels
Display aspect ratio : 2.40:1
Frame rate mode : Constant
Frame rate : 23.976 (24000/1001) FPS
Color space : YUV
Chroma subsampling : 4:2:0
Bit depth : 8 bits
Scan type : Progressive
Bits/(Pixel*Frame) : 0.442
Stream size : 13.6 GiB (89%)
Writing library : x264 core 159 r2991+50 ~ Encoded by Mocunaman in Portugal
Encoding settings : cabac=1 / ref=5 / deblock=1:-3:-3 / analyse=0x3:0x113 / me=umh / subme=11 / psy=1 / fade_compensate=0.00 / psy_rd=1.00:0.00 / mixed_ref=1 / me_range=32 / chroma_me=1 / trellis=2 / 8x8dct=1 / cqm=0 / deadzone=21,11 / fast_pskip=0 / chroma_qp_offset=-2 / threads=25 / lookahead_threads=4 / sliced_threads=0 / nr=0 / decimate=0 / interlaced=0 / bluray_compat=0 / constrained_intra=0 / fgo=0 / bframes=9 / b_pyramid=2 / b_adapt=2 / b_bias=0 / direct=3 / weightb=1 / open_gop=0 / weightp=2 / keyint=250 / keyint_min=23 / scenecut=40 / intra_refresh=0 / rc_lookahead=60 / rc=crf / mbtree=0 / crf=15.3000 / qcomp=0.65 / qpmin=0:0:0 / qpmax=69:69:69 / qpstep=4 / vbv_maxrate=30000 / vbv_bufsize=38000 / crf_max=0.0 / nal_hrd=none / filler=0 / ip_ratio=1.30 / pb_ratio=1.20 / aq=3:0.80 / aq-sensitivity=10.00 / aq-factor=1.00:1.00:1.00 / aq2=0 / aq3=0 / zones=1444,1550,crf=13.3/7474,11900,qcomp=0.60,aq-strength=0.75,crf=13.3/40290,43720,qcomp=0.60,aq-strength=0.75,crf=13.3/95750,102260,qcomp=0.60,aq-strength=0.85,crf=13.3/102261,118950,qcomp=0.60,aq-strength=0.75,crf=13.3/118951,121980,qcomp=0.60,aq-strength=0.85,crf=13.3
Language : English
Default : Yes
Forced : No
Color range : Limited
Color primaries : BT.709
Transfer characteristics : BT.709

Audio #1

ID : 2
Format : E-AC-3
Format/Info : Enhanced AC-3
Commercial name : Dolby Digital Plus
Format profile : Blu-ray Disc
Codec ID : A_EAC3
Duration : 1 h 58 min
Bit rate mode : Constant
Bit rate : 1 536 kb/s
Channel(s) : 8 channels
Channel layout : L R C LFE Ls Rs Lb Rb
Sampling rate : 48.0 kHz
Frame rate : 31.250 FPS (1536 SPF)
Compression mode : Lossy
Stream size : 1.28 GiB (8%)
Title : E-AC3 DD+7.1
Language : English
Service kind : Complete Main
Default : Yes
Forced : No

Audio #2

ID : 3
Format : AC-3
Format/Info : Audio Coding 3
Commercial name : Dolby Digital
Codec ID : A_AC3
Duration : 1 h 58 min
Bit rate mode : Constant
Bit rate : 192 kb/s
Channel(s) : 2 channels
Channel layout : L R
Sampling rate : 48.0 kHz
Frame rate : 31.250 FPS (1536 SPF)
Bit depth : 16 bits
Compression mode : Lossy
Stream size : 163 MiB (1%)
Title : Commentary by Director Sam Mendes
Language : English
Service kind : Complete Main
Default : No
Forced : No

Audio #3

ID : 4
Format : AC-3
Format/Info : Audio Coding 3
Commercial name : Dolby Digital
Codec ID : A_AC3
Duration : 1 h 58 min
Bit rate mode : Constant
Bit rate : 192 kb/s
Channel(s) : 2 channels
Channel layout : L R
Sampling rate : 48.0 kHz
Frame rate : 31.250 FPS (1536 SPF)
Bit depth : 16 bits
Compression mode : Lossy
Stream size : 163 MiB (1%)
Title : Commentary by Cinematographer Roger Deakins
Language : English
Service kind : Complete Main
Default : No
Forced : No

Text #1

ID : 5
Format : UTF-8
Codec ID : S_TEXT/UTF8
Codec ID/Info : UTF-8 Plain Text
Duration : 1 h 45 min
Bit rate : 40 b/s
Count of elements : 1100
Stream size : 31.2 KiB (0%)
Title : SDH
Language : English
Default : Yes
Forced : No

Text #2

ID : 6
Format : UTF-8
Codec ID : S_TEXT/UTF8
Codec ID/Info : UTF-8 Plain Text
Duration : 1 h 45 min
Bit rate : 34 b/s
Count of elements : 929
Stream size : 27.1 KiB (0%)
Language : English
Default : No
Forced : No

Text #3

ID : 7
Format : UTF-8
Codec ID : S_TEXT/UTF8
Codec ID/Info : UTF-8 Plain Text
Duration : 1 h 57 min
Bit rate : 34 b/s
Count of elements : 944
Stream size : 29.9 KiB (0%)
Language : French
Default : No
Forced : No

Menu

00:00:00.000 : :Chapter 01
00:04:59.424 : :Chapter 02
00:08:19.374 : :Chapter 03
00:13:26.639 : :Chapter 04
00:16:38.789 : :Chapter 05
00:23:32.494 : :Chapter 06
00:30:28.660 : :Chapter 07
00:35:34.549 : :Chapter 08
00:42:25.376 : :Chapter 09
00:51:34.091 : :Chapter 10
00:56:36.310 : :Chapter 11
01:02:29.079 : :Chapter 12
01:06:33.573 : :Chapter 13
01:12:04.320 : :Chapter 14
01:19:45.197 : :Chapter 15
01:28:47.822 : :Chapter 16
01:33:43.451 : :Chapter 17
01:38:11.594 : :Chapter 18
01:41:43.681 : :Chapter 19
01:49:46.580 : :Chapter 20