General

Unique ID : 91019745536016060458550273302581797616 (0x4479C3EDB456789ECCEB87F2F02CE2F0)
Complete name : /movies/1/1917_2019_1080p_BluRay_REMUX_Dolby_Atmos_EPSiLON_30NAMA.mkv
Format : Matroska
Format version : Version 4
File size : 31.6 GiB
Duration : 1 h 58 min
Overall bit rate mode : Variable
Overall bit rate : 38.0 Mb/s
Movie name : 1917 (2019)
Encoded date : UTC 2020-03-15 10:42:44
Writing application : mkvmerge v44.0.0 ('Domino') 64-bit
Writing library : libebml v1.3.10 + libmatroska v1.5.2
IMDB : tt8579674
TMDB : movie/530915

Video

ID : 1
Format : AVC
Format/Info : Advanced Video Codec
Format profile : High@L4.1
Format settings : CABAC / 4 Ref Frames
Format settings, CABAC : Yes
Format settings, ReFrames : 4 frames
Codec ID : V_MPEG4/ISO/AVC
Duration : 1 h 58 min
Bit rate mode : Variable
Bit rate : 33.2 Mb/s
Maximum bit rate : 37.2 Mb/s
Width : 1 920 pixels
Height : 1 080 pixels
Display aspect ratio : 16:9
Frame rate mode : Constant
Frame rate : 23.976 (24000/1001) FPS
Color space : YUV
Chroma subsampling : 4:2:0
Bit depth : 8 bits
Scan type : Progressive
Bits/(Pixel*Frame) : 0.669
Stream size : 27.6 GiB (87%)
Title : MPEG-4 AVC Video / 33505 kbps / 1080p / 23.976 fps / 16:9 / High Profile 4.1
Language : English
Default : Yes
Forced : No

Audio #1

ID : 2
Format : MLP FBA 16-ch
Format/Info : Meridian Lossless Packing FBA with 16-channel presentation
Commercial name : Dolby TrueHD with Dolby Atmos
Codec ID : A_TRUEHD
Duration : 1 h 58 min
Bit rate mode : Variable
Bit rate : 3 810 kb/s
Maximum bit rate : 7 158 kb/s
Channel(s) : 8 channels
Channel layout : L R C LFE Ls Rs Lb Rb
Sampling rate : 48.0 kHz
Frame rate : 1 200.000 FPS (40 SPF)
Compression mode : Lossless
Stream size : 3.17 GiB (10%)
Title : Dolby TrueHD/Atmos Audio / 7.1 / 48 kHz / 3810 kbps / 24-bit
Language : English
Default : Yes
Forced : No
Number of dynamic objects : 11
Bed channel count : 1 channel
Bed channel configuration : LFE

Audio #2

ID : 3
Format : AC-3
Format/Info : Audio Coding 3
Commercial name : Dolby Digital
Codec ID : A_AC3
Duration : 1 h 58 min
Bit rate mode : Constant
Bit rate : 448 kb/s
Channel(s) : 6 channels
Channel layout : L R C LFE Ls Rs
Sampling rate : 48.0 kHz
Frame rate : 31.250 FPS (1536 SPF)
Bit depth : 16 bits
Compression mode : Lossy
Stream size : 381 MiB (1%)
Title : Compatibility Track / Dolby Digital Audio / 5.1 / 48 kHz / 448 kbps
Language : English
Service kind : Complete Main
Default : No
Forced : No

Audio #3

ID : 4
Format : AC-3
Format/Info : Audio Coding 3
Commercial name : Dolby Digital
Codec ID : A_AC3
Duration : 1 h 58 min
Bit rate mode : Constant
Bit rate : 192 kb/s
Channel(s) : 2 channels
Channel layout : L R
Sampling rate : 48.0 kHz
Frame rate : 31.250 FPS (1536 SPF)
Bit depth : 16 bits
Compression mode : Lossy
Stream size : 163 MiB (1%)
Title : Commentary by director/co-writer Sam Mendes
Language : English
Service kind : Complete Main
Default : No
Forced : No

Audio #4

ID : 5
Format : AC-3
Format/Info : Audio Coding 3
Commercial name : Dolby Digital
Codec ID : A_AC3
Duration : 1 h 58 min
Bit rate mode : Constant
Bit rate : 192 kb/s
Channel(s) : 2 channels
Channel layout : L R
Sampling rate : 48.0 kHz
Frame rate : 31.250 FPS (1536 SPF)
Bit depth : 16 bits
Compression mode : Lossy
Stream size : 163 MiB (1%)
Title : Commentary by director of photography Roger Deakins
Language : English
Service kind : Complete Main
Default : No
Forced : No

Text #1

ID : 6
Format : PGS
Codec ID : S_HDMV/PGS
Codec ID/Info : Picture based subtitle format used on BDs/HD-DVDs
Duration : 1 h 45 min
Bit rate : 28.0 kb/s
Count of elements : 2202
Stream size : 21.2 MiB (0%)
Title : SDH
Language : English
Default : No
Forced : No

Text #2

ID : 7
Format : PGS
Codec ID : S_HDMV/PGS
Codec ID/Info : Picture based subtitle format used on BDs/HD-DVDs
Duration : 1 h 57 min
Bit rate : 22.7 kb/s
Count of elements : 1888
Stream size : 19.1 MiB (0%)
Language : French
Default : No
Forced : No

Text #3

ID : 8
Format : PGS
Codec ID : S_HDMV/PGS
Codec ID/Info : Picture based subtitle format used on BDs/HD-DVDs
Duration : 1 h 57 min
Bit rate : 21.3 kb/s
Count of elements : 2022
Stream size : 17.9 MiB (0%)
Title : Latin American
Language : Spanish
Default : No
Forced : No

Menu

00:00:00.000 : en:Chapter 1
00:04:59.424 : en:Chapter 2
00:08:19.374 : en:Chapter 3
00:13:26.639 : en:Chapter 4
00:16:38.789 : en:Chapter 5
00:23:32.494 : en:Chapter 6
00:30:28.660 : en:Chapter 7
00:35:34.549 : en:Chapter 8
00:42:25.376 : en:Chapter 9
00:51:34.091 : en:Chapter 10
00:56:36.310 : en:Chapter 11
01:02:29.079 : en:Chapter 12
01:06:33.573 : en:Chapter 13
01:12:04.320 : en:Chapter 14
01:19:45.197 : en:Chapter 15
01:28:47.822 : en:Chapter 16
01:33:43.451 : en:Chapter 17
01:38:11.594 : en:Chapter 18
01:41:43.681 : en:Chapter 19
01:49:46.580 : en:Chapter 20