General

Unique ID : 184648358606352436382913968394573803360 (0x8AE9FAF515A1BA53F8B277CC96396F60)
Complete name : /home/30nama/movies/1/1917_2019_1080p_WEBRip_AC3_IMNEWHERE_30NAMA.mkv
Format : Matroska
Format version : Version 4
File size : 17.0 GiB
Duration : 1 h 58 min
Overall bit rate : 20.4 Mb/s
Encoded date : UTC 2020-03-13 19:43:09
Writing application : mkvmerge v44.0.0 ('Domino') 64-bit
Writing library : libebml v1.3.10 + libmatroska v1.5.2

Video

ID : 1
Format : AVC
Format/Info : Advanced Video Codec
Format profile : High@L4.1
Format settings : CABAC / 5 Ref Frames
Format settings, CABAC : Yes
Format settings, ReFrames : 5 frames
Codec ID : V_MPEG4/ISO/AVC
Duration : 1 h 58 min
Bit rate : 18.5 Mb/s
Width : 1 920 pixels
Height : 802 pixels
Display aspect ratio : 2.40:1
Frame rate mode : Constant
Frame rate : 23.976 (24000/1001) FPS
Color space : YUV
Chroma subsampling : 4:2:0
Bit depth : 8 bits
Scan type : Progressive
Bits/(Pixel*Frame) : 0.501
Stream size : 15.4 GiB (91%)
Writing library : x264 core 155 r2901 7d0ff22
Encoding settings : cabac=1 / ref=5 / deblock=1:-3:-3 / analyse=0x3:0x133 / me=umh / subme=11 / psy=1 / psy_rd=1.00:0.00 / mixed_ref=1 / me_range=48 / chroma_me=1 / trellis=2 / 8x8dct=1 / cqm=0 / deadzone=21,11 / fast_pskip=0 / chroma_qp_offset=-2 / threads=24 / lookahead_threads=4 / sliced_threads=0 / nr=0 / decimate=0 / interlaced=0 / bluray_compat=0 / constrained_intra=0 / bframes=8 / b_pyramid=2 / b_adapt=2 / b_bias=0 / direct=3 / weightb=1 / open_gop=0 / weightp=2 / keyint=250 / keyint_min=24 / scenecut=40 / intra_refresh=0 / rc_lookahead=120 / rc=crf / mbtree=0 / crf=13.8 / qcomp=0.60 / qpmin=0 / qpmax=69 / qpstep=4 / vbv_maxrate=62500 / vbv_bufsize=78125 / crf_max=0.0 / nal_hrd=none / filler=0 / ip_ratio=1.30 / pb_ratio=1.20 / aq=3:0.85
Language : English
Default : Yes
Forced : No
Color range : Limited
Color primaries : BT.709
Transfer characteristics : BT.709
Matrix coefficients : BT.709

Audio #1

ID : 2
Format : E-AC-3
Format/Info : Enhanced AC-3
Commercial name : Dolby Digital Plus
Format profile : Blu-ray Disc
Codec ID : A_EAC3
Duration : 1 h 58 min
Bit rate mode : Constant
Bit rate : 1 536 kb/s
Channel(s) : 8 channels
Channel layout : L R C LFE Ls Rs Lb Rb
Sampling rate : 48.0 kHz
Frame rate : 31.250 FPS (1536 SPF)
Compression mode : Lossy
Stream size : 1.28 GiB (8%)
Language : English
Service kind : Complete Main
Default : Yes
Forced : No

Audio #2

ID : 3
Format : AC-3
Format/Info : Audio Coding 3
Commercial name : Dolby Digital
Codec ID : A_AC3
Duration : 1 h 58 min
Bit rate mode : Constant
Bit rate : 192 kb/s
Channel(s) : 2 channels
Channel layout : L R
Sampling rate : 48.0 kHz
Frame rate : 31.250 FPS (1536 SPF)
Bit depth : 16 bits
Compression mode : Lossy
Delay relative to video : 6 ms
Stream size : 163 MiB (1%)
Title : Commentary by co-writer/director Sam Mendes
Language : English
Service kind : Complete Main
Default : No
Forced : No

Audio #3

ID : 4
Format : AC-3
Format/Info : Audio Coding 3
Commercial name : Dolby Digital
Codec ID : A_AC3
Duration : 1 h 58 min
Bit rate mode : Constant
Bit rate : 192 kb/s
Channel(s) : 2 channels
Channel layout : L R
Sampling rate : 48.0 kHz
Frame rate : 31.250 FPS (1536 SPF)
Bit depth : 16 bits
Compression mode : Lossy
Delay relative to video : 6 ms
Stream size : 163 MiB (1%)
Title : Commentary by director of photography Roger Deakins
Language : English
Service kind : Complete Main
Default : No
Forced : No

Text #1

ID : 5
Format : UTF-8
Codec ID : S_TEXT/UTF8
Codec ID/Info : UTF-8 Plain Text
Duration : 1 h 45 min
Bit rate : 36 b/s
Count of elements : 1093
Stream size : 28.0 KiB (0%)
Language : English
Default : No
Forced : No

Text #2

ID : 6
Format : UTF-8
Codec ID : S_TEXT/UTF8
Codec ID/Info : UTF-8 Plain Text
Duration : 1 h 58 min
Bit rate : 41 b/s
Count of elements : 1473
Stream size : 36.1 KiB (0%)
Title : SDH
Language : English
Default : No
Forced : No

Menu

00:00:00.000 : en:Chapter 1
00:04:59.424 : en:Chapter 2
00:08:19.374 : en:Chapter 3
00:13:26.639 : en:Chapter 4
00:16:38.789 : en:Chapter 5
00:23:32.494 : en:Chapter 6
00:30:28.660 : en:Chapter 7
00:35:34.549 : en:Chapter 8
00:42:25.376 : en:Chapter 9
00:51:34.091 : en:Chapter 10
00:56:36.310 : en:Chapter 11
01:02:29.079 : en:Chapter 12
01:06:33.573 : en:Chapter 13
01:12:04.320 : en:Chapter 14
01:19:45.197 : en:Chapter 15
01:28:47.822 : en:Chapter 16
01:33:43.451 : en:Chapter 17
01:38:11.594 : en:Chapter 18
01:41:43.681 : en:Chapter 19
01:49:46.580 : en:Chapter 20