General

Unique ID : 289957531421822756806133907010325352127 (0xDA23CA0B68BB1E175E926B2F1AB88EBF)
Complete name : /movies/1/1917_2019_10bit_720p_x265_BrRip_6CH_PSA_30NAMA.mkv
Format : Matroska
Format version : Version 4
File size : 1.23 GiB
Duration : 1 h 58 min
Overall bit rate : 1 484 kb/s
Movie name : PSArips.com | 1917.2019.720p.10bit.BluRay.6CH.x265.HEVC-PSA
Encoded date : UTC 2020-03-16 08:12:10
Writing application : mkvmerge v44.0.0 ('Domino') 64-bit
Writing library : libebml v1.3.10 + libmatroska v1.5.2

Video

ID : 1
Format : HEVC
Format/Info : High Efficiency Video Coding
Format profile : Main 10@L3.1@Main
Codec ID : V_MPEGH/ISO/HEVC
Duration : 1 h 58 min
Bit rate : 1 263 kb/s
Width : 1 280 pixels
Height : 536 pixels
Display aspect ratio : 2.40:1
Frame rate mode : Constant
Frame rate : 23.976 (24000/1001) FPS
Color space : YUV
Chroma subsampling : 4:2:0
Bit depth : 10 bits
Bits/(Pixel*Frame) : 0.077
Stream size : 1.05 GiB (85%)
Default : Yes
Forced : No

Audio

ID : 2
Format : AAC LC SBR
Format/Info : Advanced Audio Codec Low Complexity with Spectral Band Replication
Commercial name : HE-AAC
Format settings : Explicit
Codec ID : A_AAC-2
Duration : 1 h 58 min
Bit rate : 220 kb/s
Channel(s) : 6 channels
Channel layout : C L R Ls Rs LFE
Sampling rate : 48.0 kHz
Frame rate : 23.438 FPS (2048 SPF)
Compression mode : Lossy
Delay relative to video : 31 ms
Stream size : 187 MiB (15%)
Language : English
Default : Yes
Forced : No

Text

ID : 3
Format : UTF-8
Codec ID : S_TEXT/UTF8
Codec ID/Info : UTF-8 Plain Text
Duration : 1 h 45 min
Bit rate : 35 b/s
Count of elements : 937
Stream size : 27.1 KiB (0%)
Title : English-SRT
Language : English
Default : No
Forced : No

Menu

00:00:00.000 : en:Chapter 01
00:04:59.424 : en:Chapter 02
00:08:19.373 : en:Chapter 03
00:13:26.639 : en:Chapter 04
00:16:38.789 : en:Chapter 05
00:23:32.494 : en:Chapter 06
00:30:28.660 : en:Chapter 07
00:35:34.549 : en:Chapter 08
00:42:25.376 : en:Chapter 09
00:51:34.091 : en:Chapter 10
00:56:36.309 : en:Chapter 11
01:02:29.078 : en:Chapter 12
01:06:33.572 : en:Chapter 13
01:12:04.320 : en:Chapter 14
01:19:45.197 : en:Chapter 15
01:28:47.822 : en:Chapter 16
01:33:43.451 : en:Chapter 17
01:38:11.594 : en:Chapter 18
01:41:43.680 : en:Chapter 19
01:49:46.580 : en:Chapter 20