General

Unique ID : 198619563154110027912347603611101314682 (0x956CBC86264F7F971317B7FECF763E7A)
Complete name : /movies/1/1917_2019_10bit_HDR_2160p_x265_BluRay_REMUX_Dolby_Atmos_EPSiLON_30NAMA.mkv
Format : Matroska
Format version : Version 4
File size : 62.2 GiB
Duration : 1 h 58 min
Overall bit rate mode : Variable
Overall bit rate : 74.9 Mb/s
Movie name : 1917 (2019)
Encoded date : UTC 2020-03-16 21:15:39
Writing application : mkvmerge v44.0.0 ('Domino') 64-bit
Writing library : libebml v1.3.10 + libmatroska v1.5.2
IMDB : tt8579674
TMDB : movie/530915

Video

ID : 1
Format : HEVC
Format/Info : High Efficiency Video Coding
Commercial name : HDR10
Format profile : Main 10@L5.1@High
Codec ID : V_MPEGH/ISO/HEVC
Duration : 1 h 58 min
Bit rate : 70.1 Mb/s
Width : 3 840 pixels
Height : 2 160 pixels
Display aspect ratio : 16:9
Frame rate mode : Constant
Frame rate : 23.976 (24000/1001) FPS
Color space : YUV
Chroma subsampling : 4:2:0 (Type 2)
Bit depth : 10 bits
Bits/(Pixel*Frame) : 0.353
Stream size : 58.3 GiB (94%)
Title : MPEG-H HEVC Video / 70109 kbps / 2160p / 23.976 fps / 16:9 / Main 10 @ Level 5.1 @ High / 10 bits / HDR10 / BT.2020
Language : English
Default : Yes
Forced : No
Color range : Limited
Color primaries : BT.2020
Transfer characteristics : PQ
Matrix coefficients : BT.2020 non-constant
Mastering display color primaries : Display P3
Mastering display luminance : min: 0.0001 cd/m2, max: 1000 cd/m2
Maximum Content Light Level : 1000 cd/m2
Maximum Frame-Average Light Level : 168 cd/m2

Audio #1

ID : 2
Format : MLP FBA 16-ch
Format/Info : Meridian Lossless Packing FBA with 16-channel presentation
Commercial name : Dolby TrueHD with Dolby Atmos
Codec ID : A_TRUEHD
Duration : 1 h 58 min
Bit rate mode : Variable
Bit rate : 3 810 kb/s
Maximum bit rate : 7 158 kb/s
Channel(s) : 8 channels
Channel layout : L R C LFE Ls Rs Lb Rb
Sampling rate : 48.0 kHz
Frame rate : 1 200.000 FPS (40 SPF)
Compression mode : Lossless
Stream size : 3.17 GiB (5%)
Title : Dolby TrueHD/Atmos Audio / 7.1 / 48 kHz / 3810 kbps / 24-bit
Language : English
Default : Yes
Forced : No
Number of dynamic objects : 11
Bed channel count : 1 channel
Bed channel configuration : LFE

Audio #2

ID : 3
Format : AC-3
Format/Info : Audio Coding 3
Commercial name : Dolby Digital
Codec ID : A_AC3
Duration : 1 h 58 min
Bit rate mode : Constant
Bit rate : 448 kb/s
Channel(s) : 6 channels
Channel layout : L R C LFE Ls Rs
Sampling rate : 48.0 kHz
Frame rate : 31.250 FPS (1536 SPF)
Bit depth : 16 bits
Compression mode : Lossy
Stream size : 381 MiB (1%)
Title : Compatibility Track / Dolby Digital Audio / 5.1 / 48 kHz / 448 kbps
Language : English
Service kind : Complete Main
Default : No
Forced : No

Audio #3

ID : 4
Format : AC-3
Format/Info : Audio Coding 3
Commercial name : Dolby Digital
Codec ID : A_AC3
Duration : 1 h 58 min
Bit rate mode : Constant
Bit rate : 192 kb/s
Channel(s) : 2 channels
Channel layout : L R
Sampling rate : 48.0 kHz
Frame rate : 31.250 FPS (1536 SPF)
Bit depth : 16 bits
Compression mode : Lossy
Stream size : 163 MiB (0%)
Title : Commentary by director/co-writer Sam Mendes
Language : English
Service kind : Complete Main
Default : No
Forced : No

Audio #4

ID : 5
Format : AC-3
Format/Info : Audio Coding 3
Commercial name : Dolby Digital
Codec ID : A_AC3
Duration : 1 h 58 min
Bit rate mode : Constant
Bit rate : 192 kb/s
Channel(s) : 2 channels
Channel layout : L R
Sampling rate : 48.0 kHz
Frame rate : 31.250 FPS (1536 SPF)
Bit depth : 16 bits
Compression mode : Lossy
Stream size : 163 MiB (0%)
Title : Commentary by director of photography Roger Deakins
Language : English
Service kind : Complete Main
Default : No
Forced : No

Text #1

ID : 6
Format : PGS
Codec ID : S_HDMV/PGS
Codec ID/Info : Picture based subtitle format used on BDs/HD-DVDs
Duration : 1 h 45 min
Bit rate : 28.0 kb/s
Count of elements : 2202
Stream size : 21.2 MiB (0%)
Title : SDH
Language : English
Default : No
Forced : No

Text #2

ID : 7
Format : PGS
Codec ID : S_HDMV/PGS
Codec ID/Info : Picture based subtitle format used on BDs/HD-DVDs
Duration : 1 h 57 min
Bit rate : 22.7 kb/s
Count of elements : 1888
Stream size : 19.1 MiB (0%)
Title : Canadian
Language : French
Default : No
Forced : No

Text #3

ID : 8
Format : PGS
Codec ID : S_HDMV/PGS
Codec ID/Info : Picture based subtitle format used on BDs/HD-DVDs
Duration : 1 h 57 min
Bit rate : 21.3 kb/s
Count of elements : 2022
Stream size : 17.9 MiB (0%)
Title : Latin American
Language : Spanish
Default : No
Forced : No

Menu

00:00:00.000 : en:Chapter 1
00:05:00.425 : en:Chapter 2
00:08:20.375 : en:Chapter 3
00:13:27.640 : en:Chapter 4
00:16:39.790 : en:Chapter 5
00:23:33.495 : en:Chapter 6
00:30:29.661 : en:Chapter 7
00:35:35.550 : en:Chapter 8
00:42:26.377 : en:Chapter 9
00:51:35.092 : en:Chapter 10
00:56:37.311 : en:Chapter 11
01:02:30.080 : en:Chapter 12
01:06:34.574 : en:Chapter 13
01:12:05.321 : en:Chapter 14
01:19:46.198 : en:Chapter 15
01:28:48.823 : en:Chapter 16
01:33:44.452 : en:Chapter 17
01:38:12.595 : en:Chapter 18
01:41:44.682 : en:Chapter 19
01:49:47.581 : en:Chapter 20