General

Unique ID : 73841374778197679388897130170033734047 (0x378D54DC01333E9757557ED79115819F)
Complete name : /home/30nama/movies/1/1917_2019_HDR_2160p_x265_BrRip_8CH_PSA_30NAMA.mkv
Format : Matroska
Format version : Version 4
File size : 4.49 GiB
Duration : 1 h 58 min
Overall bit rate : 5 398 kb/s
Movie name : PSArips.com | 1917.2019.2160p.HDR10Plus.BluRay.8CH.x265.HEVC-PSA
Encoded date : UTC 2020-03-18 07:16:13
Writing application : mkvmerge v44.0.0 ('Domino') 64-bit
Writing library : libebml v1.3.10 + libmatroska v1.5.2

Video

ID : 1
Format : HEVC
Format/Info : High Efficiency Video Coding
Commercial name : HDR10
Format profile : Main 10@L5.1@High
Codec ID : V_MPEGH/ISO/HEVC
Duration : 1 h 58 min
Bit rate : 5 112 kb/s
Width : 3 840 pixels
Height : 2 160 pixels
Display aspect ratio : 16:9
Frame rate mode : Constant
Frame rate : 23.976 (24000/1001) FPS
Color space : YUV
Chroma subsampling : 4:2:0 (Type 2)
Bit depth : 10 bits
Bits/(Pixel*Frame) : 0.026
Stream size : 4.25 GiB (95%)
Default : Yes
Forced : No
Color range : Limited
Color primaries : BT.2020
Transfer characteristics : PQ
Matrix coefficients : BT.2020 non-constant
Mastering display color primaries : Display P3
Mastering display luminance : min: 0.0001 cd/m2, max: 1000 cd/m2
Maximum Content Light Level : 1000 cd/m2
Maximum Frame-Average Light Level : 168 cd/m2

Audio

ID : 2
Format : AAC LC SBR
Format/Info : Advanced Audio Codec Low Complexity with Spectral Band Replication
Commercial name : HE-AAC
Format settings : Explicit
Codec ID : A_AAC-2
Duration : 1 h 58 min
Bit rate : 288 kb/s
Channel(s) : 8 channels
Channel layout : C L R Ls Rs Lb Rb LFE
Sampling rate : 48.0 kHz
Frame rate : 23.438 FPS (2048 SPF)
Compression mode : Lossy
Delay relative to video : 31 ms
Stream size : 242 MiB (5%)
Language : English
Default : Yes
Forced : No

Text #1

ID : 3
Format : UTF-8
Codec ID : S_TEXT/UTF8
Codec ID/Info : UTF-8 Plain Text
Duration : 1 h 45 min
Bit rate : 35 b/s
Count of elements : 937
Stream size : 27.1 KiB (0%)
Title : ENG
Language : English
Default : Yes
Forced : No

Text #2

ID : 4
Format : UTF-8
Codec ID : S_TEXT/UTF8
Codec ID/Info : UTF-8 Plain Text
Duration : 1 h 45 min
Bit rate : 40 b/s
Count of elements : 1100
Stream size : 31.2 KiB (0%)
Title : SDH
Language : English
Default : No
Forced : No

Menu

00:00:00.000 : en:Chapter 01
00:05:00.341 : en:Chapter 02
00:08:20.291 : en:Chapter 03
00:13:27.515 : en:Chapter 04
00:16:39.581 : en:Chapter 05
00:23:33.870 : en:Chapter 06
00:30:29.744 : en:Chapter 07
00:35:35.424 : en:Chapter 08
00:42:26.585 : en:Chapter 09
00:51:34.841 : en:Chapter 10
00:56:37.644 : en:Chapter 11
01:02:29.829 : en:Chapter 12
01:06:34.281 : en:Chapter 13
01:12:05.237 : en:Chapter 14
01:19:45.947 : en:Chapter 15
01:28:48.531 : en:Chapter 16
01:33:44.785 : en:Chapter 17
01:38:12.595 : en:Chapter 18
01:41:45.015 : en:Chapter 19
01:49:47.872 : en:Chapter 20