General

Unique ID : 275295953753343653002415459427884173224 (0xCF1C12748134C7F8F5A8EA8D8D8787A8)
Complete name : /movies/a/Alone_2020_720p_WEB-DL_GalaxyRG_30NAMA.mkv
Format : Matroska
Format version : Version 4
File size : 797 MiB
Duration : 1 h 20 min
Overall bit rate : 1 385 kb/s
Movie name : GalaxyRG - Alone.2020.720p.WEBRip.800MB.x264-GalaxyRG
Writing application : Lavf58.27.100
Writing library : Lavf58.27.100
Comment : GalaxyRG - Alone.2020.720p.WEBRip.800MB.x264-GalaxyRG
ErrorDetectionType : Per level 1

Video

ID : 1
Format : AVC
Format/Info : Advanced Video Codec
Format profile : High@L3.1
Format settings : CABAC / 4 Ref Frames
Format settings, CABAC : Yes
Format settings, ReFrames : 4 frames
Codec ID : V_MPEG4/ISO/AVC
Duration : 1 h 20 min
Bit rate : 4 641 kb/s
Nominal bit rate : 1 285 kb/s
Width : 1 280 pixels
Height : 528 pixels
Display aspect ratio : 2.40:1
Frame rate mode : Variable
Frame rate : 23.976 FPS
Color space : YUV
Chroma subsampling : 4:2:0
Bit depth : 8 bits
Scan type : Progressive
Bits/(Pixel*Frame) : 0.286
Stream size : 2.61 GiB
Title : GalaxyRG - Alone.2020.720p.WEBRip.800MB.x264-GalaxyRG
Writing library : x264 core 148 r2748 97eaef2
Encoding settings : cabac=1 / ref=2 / deblock=1:0:0 / analyse=0x3:0x113 / me=hex / subme=4 / psy=1 / psy_rd=1.00:0.00 / mixed_ref=0 / me_range=16 / chroma_me=1 / trellis=1 / 8x8dct=1 / cqm=0 / deadzone=21,11 / fast_pskip=1 / chroma_qp_offset=0 / threads=6 / lookahead_threads=1 / sliced_threads=0 / nr=0 / decimate=1 / interlaced=0 / bluray_compat=0 / constrained_intra=0 / bframes=3 / b_pyramid=2 / b_adapt=1 / b_bias=0 / direct=1 / weightb=1 / open_gop=0 / weightp=1 / keyint=250 / keyint_min=23 / scenecut=40 / intra_refresh=0 / rc_lookahead=20 / rc=2pass / mbtree=1 / bitrate=1285 / ratetol=1.0 / qcomp=0.60 / qpmin=0 / qpmax=69 / qpstep=4 / cplxblur=20.0 / qblur=0.5 / ip_ratio=1.40 / aq=1:1.00
Language : English
Default : Yes
Forced : No

Audio

ID : 2
Format : AAC LC
Format/Info : Advanced Audio Codec Low Complexity
Codec ID : A_AAC-2
Duration : 1 h 20 min
Bit rate : 384 kb/s
Channel(s) : 2 channels
Channel layout : L R
Sampling rate : 48.0 kHz
Frame rate : 46.875 FPS (1024 SPF)
Compression mode : Lossy
Stream size : 221 MiB (28%)
Title : GalaxyRG - Alone.2020.720p.WEBRip.800MB.x264-GalaxyRG
Writing library : Lavc58.48.101 aac
Language : English
Default : Yes
Forced : No

Text

ID : 3
Format : UTF-8
Codec ID : S_TEXT/UTF8
Codec ID/Info : UTF-8 Plain Text
Duration : 1 h 19 min
Bit rate : 62 b/s
Count of elements : 1047
Stream size : 36.4 KiB (0%)
Title : GalaxyRG - Alone.2020.720p.WEBRip.800MB.x264-GalaxyRG
Language : English
Default : Yes
Forced : No

Menu

00:00:00.000 : :1
00:02:03.000 : :2
00:12:01.000 : :3
00:23:09.000 : :4
00:33:15.000 : :5
00:43:28.000 : :6
00:52:58.000 : :7
01:02:49.000 : :8
01:15:50.000 : :9