General

Unique ID : 2251740475541285452781392777996898777 (0x1B1AB607A4CAFB36F3158528C3F91D9)
Complete name : /home/30nama/movies/a/An_Officer_and_a_Spy_2019_1080p_BluRay_REMUX_DTS_BLURANiUM_30NAMA.mkv
Format : Matroska
Format version : Version 4
File size : 32.7 GiB
Duration : 2 h 11 min
Overall bit rate mode : Variable
Overall bit rate : 35.5 Mb/s
Movie name : An Officer and a Spy (2019)
Encoded date : UTC 2020-03-20 15:32:44
Writing application : mkvmerge v44.0.0 ('Domino') 64-bit
Writing library : libebml v1.3.10 + libmatroska v1.5.2
IMDB : tt2398149
TMDB : movie/399121

Video

ID : 1
Format : AVC
Format/Info : Advanced Video Codec
Format profile : High@L4.1
Format settings : CABAC / 3 Ref Frames
Format settings, CABAC : Yes
Format settings, ReFrames : 3 frames
Format settings, GOP : M=3, N=23
Codec ID : V_MPEG4/ISO/AVC
Duration : 2 h 11 min
Bit rate mode : Variable
Bit rate : 32.0 Mb/s
Maximum bit rate : 39.0 Mb/s
Width : 1 920 pixels
Height : 1 080 pixels
Display aspect ratio : 16:9
Frame rate mode : Constant
Frame rate : 23.976 (24000/1001) FPS
Color space : YUV
Chroma subsampling : 4:2:0
Bit depth : 8 bits
Scan type : Progressive
Bits/(Pixel*Frame) : 0.644
Stream size : 29.4 GiB (90%)
Title : MPEG-4 AVC Video / 31943 kbps / 1080p / 23.976 fps / 16:9 / High Profile 4.1
Writing library : x264 core 146 r2538 121396c
Encoding settings : cabac=1 / ref=4 / deblock=1:-1:-1 / analyse=0x3:0x133 / me=umh / subme=10 / psy=1 / psy_rd=1.00:0.15 / mixed_ref=1 / me_range=24 / chroma_me=1 / trellis=2 / 8x8dct=1 / cqm=0 / deadzone=21,11 / fast_pskip=1 / chroma_qp_offset=-3 / threads=48 / lookahead_threads=4 / sliced_threads=0 / slices=4 / nr=0 / decimate=1 / interlaced=0 / bluray_compat=1 / constrained_intra=0 / bframes=3 / b_pyramid=1 / b_adapt=2 / b_bias=0 / direct=3 / weightb=1 / open_gop=1 / weightp=1 / keyint=24 / keyint_min=1 / scenecut=40 / intra_refresh=0 / rc_lookahead=24 / rc=2pass / mbtree=1 / bitrate=32000 / ratetol=1.0 / qcomp=0.60 / qpmin=0 / qpmax=69 / qpstep=4 / cplxblur=20.0 / qblur=0.5 / vbv_maxrate=39000 / vbv_bufsize=30000 / nal_hrd=vbr / filler=0 / ip_ratio=1.40 / aq=1:1.00
Language : French
Default : Yes
Forced : No
Color range : Limited
Color primaries : BT.709
Transfer characteristics : BT.709
Matrix coefficients : BT.709

Audio

ID : 2
Format : DTS XLL
Format/Info : Digital Theater Systems
Commercial name : DTS-HD Master Audio
Codec ID : A_DTS
Duration : 2 h 11 min
Bit rate mode : Variable
Bit rate : 3 568 kb/s
Channel(s) : 6 channels
Channel layout : C L R Ls Rs LFE
Sampling rate : 48.0 kHz
Frame rate : 93.750 FPS (512 SPF)
Bit depth : 24 bits
Compression mode : Lossless
Stream size : 3.28 GiB (10%)
Title : DTS-HD Master Audio / 5.1 / 48 kHz / 3568 kbps / 24-bit
Language : French
Default : Yes
Forced : No

Text #1

ID : 3
Format : UTF-8
Codec ID : S_TEXT/UTF8
Codec ID/Info : UTF-8 Plain Text
Duration : 2 h 3 min
Bit rate : 50 b/s
Count of elements : 1213
Stream size : 46.0 KiB (0%)
Language : English
Default : Yes
Forced : No

Text #2

ID : 4
Format : PGS
Codec ID : S_HDMV/PGS
Codec ID/Info : Picture based subtitle format used on BDs/HD-DVDs
Duration : 2 h 11 min
Bit rate : 31.2 kb/s
Count of elements : 3853
Stream size : 29.4 MiB (0%)
Language : French
Default : No
Forced : No

Menu

00:00:00.000 : en:Chapter 01
00:09:24.063 : en:Chapter 02
00:19:04.643 : en:Chapter 03
00:29:53.583 : en:Chapter 04
00:38:10.246 : en:Chapter 05
00:44:31.419 : en:Chapter 06
00:54:50.496 : en:Chapter 07
01:03:42.777 : en:Chapter 08
01:11:14.770 : en:Chapter 09
01:18:04.221 : en:Chapter 10
01:28:07.199 : en:Chapter 11
01:37:55.661 : en:Chapter 12
01:46:52.740 : en:Chapter 13
01:52:55.352 : en:Chapter 14
01:59:55.688 : en:Chapter 15
02:05:11.796 : en:Chapter 16