General

Unique ID : 134775646379038250830682302163663413655 (0x6564D86678131B4CBF5C941CEB1B6197)
Complete name : /home/30nama/movies/a/Ava_2020_1080p_BluRay_AdiT_30NAMA.mkv
Format : Matroska
Format version : Version 4
File size : 4.62 GiB
Duration : 1 h 36 min
Overall bit rate : 6 824 kb/s
Movie name : Ava 2020 1080p Bluray AC3 x264-AdiT
Encoded date : UTC 2020-09-19 10:25:49
Writing application : mkvmerge v50.0.0 ('Awakenings') 64-bit
Writing library : libebml v1.4.0 + libmatroska v1.6.2

Video

ID : 1
Format : AVC
Format/Info : Advanced Video Codec
Format profile : High@L4.1
Format settings : CABAC / 5 Ref Frames
Format settings, CABAC : Yes
Format settings, ReFrames : 5 frames
Codec ID : V_MPEG4/ISO/AVC
Duration : 1 h 36 min
Bit rate : 6 159 kb/s
Width : 1 920 pixels
Height : 804 pixels
Display aspect ratio : 2.40:1
Frame rate mode : Constant
Frame rate : 23.976 (24000/1001) FPS
Color space : YUV
Chroma subsampling : 4:2:0
Bit depth : 8 bits
Scan type : Progressive
Bits/(Pixel*Frame) : 0.166
Stream size : 4.17 GiB (90%)
Writing library : x264 core 161 r3018 db0d417
Encoding settings : cabac=1 / ref=5 / deblock=1:-2:-2 / analyse=0x3:0x133 / me=umh / subme=11 / psy=1 / psy_rd=1.00:0.00 / mixed_ref=1 / me_range=48 / chroma_me=1 / trellis=2 / 8x8dct=1 / cqm=0 / deadzone=21,11 / fast_pskip=0 / chroma_qp_offset=-2 / threads=12 / lookahead_threads=1 / sliced_threads=0 / nr=0 / decimate=0 / interlaced=0 / bluray_compat=0 / constrained_intra=0 / bframes=6 / b_pyramid=2 / b_adapt=2 / b_bias=0 / direct=1 / weightb=1 / open_gop=0 / weightp=2 / keyint=240 / keyint_min=23 / scenecut=40 / intra_refresh=0 / rc_lookahead=120 / rc=crf / mbtree=0 / crf=19.2 / qcomp=0.55 / qpmin=0 / qpmax=69 / qpstep=4 / vbv_maxrate=62500 / vbv_bufsize=78125 / crf_max=0.0 / nal_hrd=none / filler=0 / ip_ratio=1.30 / pb_ratio=1.20 / aq=3:0.80
Language : English
Default : Yes
Forced : No
Color range : Limited
Color primaries : BT.709
Transfer characteristics : BT.709
Matrix coefficients : BT.709

Audio

ID : 2
Format : AC-3
Format/Info : Audio Coding 3
Commercial name : Dolby Digital
Codec ID : A_AC3
Duration : 1 h 36 min
Bit rate mode : Constant
Bit rate : 640 kb/s
Channel(s) : 6 channels
Channel layout : L R C LFE Ls Rs
Sampling rate : 48.0 kHz
Frame rate : 31.250 FPS (1536 SPF)
Bit depth : 16 bits
Compression mode : Lossy
Stream size : 443 MiB (9%)
Language : English
Service kind : Complete Main
Default : Yes
Forced : No

Text #1

ID : 3
Format : UTF-8
Codec ID : S_TEXT/UTF8
Codec ID/Info : UTF-8 Plain Text
Duration : 31 s 700 ms
Bit rate : 15 b/s
Count of elements : 1
Stream size : 61.0 Bytes (0%)
Language : English
Default : Yes
Forced : Yes

Text #2

ID : 4
Format : PGS
Codec ID : S_HDMV/PGS
Codec ID/Info : Picture based subtitle format used on BDs/HD-DVDs
Duration : 1 h 31 min
Bit rate : 24.5 kb/s
Count of elements : 1810
Stream size : 16.0 MiB (0%)
Language : English
Default : No
Forced : No

Menu

00:00:00.000 : :Chapter 01
00:11:07.542 : :Chapter 02
00:21:53.145 : :Chapter 03
00:32:22.899 : :Chapter 04
00:44:26.497 : :Chapter 05
00:58:33.427 : :Chapter 06
01:10:38.192 : :Chapter 07
01:18:23.949 : :Chapter 08
01:32:28.752 : :Chapter 09