General

Unique ID : 284739542540362665692845756823898051828 (0xD636D7547D5E12589FE9420A00BE54F4)
Complete name : /home/30nama/movies/a/Ava_2020_10bit_720p_x265_BrRip_6CH_PSA_30NAMA.mkv
Format : Matroska
Format version : Version 4
File size : 755 MiB
Duration : 1 h 36 min
Overall bit rate : 1 090 kb/s
Movie name : PSArips.com | Ava.2020.720p.10bit.BluRay.6CH.x265.HEVC-PSA
Encoded date : UTC 2020-09-11 12:13:30
Writing application : mkvmerge v50.0.0 ('Awakenings') 64-bit
Writing library : libebml v1.4.0 + libmatroska v1.6.2

Video

ID : 1
Format : HEVC
Format/Info : High Efficiency Video Coding
Format profile : Main 10@L3.1@Main
Codec ID : V_MPEGH/ISO/HEVC
Duration : 1 h 36 min
Bit rate : 880 kb/s
Width : 1 280 pixels
Height : 536 pixels
Display aspect ratio : 2.40:1
Frame rate mode : Constant
Frame rate : 23.976 (24000/1001) FPS
Color space : YUV
Chroma subsampling : 4:2:0
Bit depth : 10 bits
Bits/(Pixel*Frame) : 0.054
Stream size : 610 MiB (81%)
Default : Yes
Forced : No
Color range : Limited
Color primaries : BT.709
Transfer characteristics : BT.709
Matrix coefficients : BT.709

Audio

ID : 2
Format : AAC LC SBR
Format/Info : Advanced Audio Codec Low Complexity with Spectral Band Replication
Commercial name : HE-AAC
Format settings : Explicit
Codec ID : A_AAC-2
Duration : 1 h 36 min
Bit rate : 207 kb/s
Channel(s) : 6 channels
Channel layout : C L R Ls Rs LFE
Sampling rate : 48.0 kHz
Frame rate : 23.438 FPS (2048 SPF)
Compression mode : Lossy
Delay relative to video : 23 ms
Stream size : 144 MiB (19%)
Language : English
Default : Yes
Forced : No

Text

ID : 3
Format : UTF-8
Codec ID : S_TEXT/UTF8
Codec ID/Info : UTF-8 Plain Text
Duration : 1 h 30 min
Bit rate : 45 b/s
Count of elements : 909
Stream size : 30.5 KiB (0%)
Language : English
Default : Yes
Forced : No

Menu

00:00:00.000 : :Chapter 1
00:11:07.800 : :Chapter 2
00:21:53.600 : :Chapter 3
00:32:23.200 : :Chapter 4
00:44:26.600 : :Chapter 5
00:58:33.600 : :Chapter 6
01:10:38.400 : :Chapter 7
01:18:24.200 : :Chapter 8
01:32:28.800 : :Chapter 9