General

Unique ID : 211404662730834337019343866252110657393 (0x9F0B0E99C1B1C46AB60D46E5DE58F771)
Complete name : /home/30nama/movies/b/Blade_II_2002_1080p_BluRay_Full_HD_DTS_D-Z0N3_30NAMA.mkv
Format : Matroska
Format version : Version 2
File size : 11.6 GiB
Duration : 1 h 56 min
Overall bit rate : 14.2 Mb/s
Encoded date : UTC 2012-07-12 21:19:00
Writing application : mkvmerge v5.5.0 ('Healer') built on Apr 6 2012 21:43:24
Writing library : libebml v1.2.3 + libmatroska v1.3.0

Video

ID : 1
Format : AVC
Format/Info : Advanced Video Codec
Format profile : High@L4.1
Format settings : CABAC / 4 Ref Frames
Format settings, CABAC : Yes
Format settings, ReFrames : 4 frames
Codec ID : V_MPEG4/ISO/AVC
Duration : 1 h 56 min
Bit rate : 12.5 Mb/s
Width : 1 920 pixels
Height : 1 080 pixels
Display aspect ratio : 16:9
Frame rate mode : Constant
Frame rate : 23.976 (24000/1001) FPS
Color space : YUV
Chroma subsampling : 4:2:0
Bit depth : 8 bits
Scan type : Progressive
Bits/(Pixel*Frame) : 0.251
Stream size : 9.97 GiB (86%)
Title : x264
Writing library : x264 core 125 r2200 999b753
Encoding settings : cabac=1 / ref=4 / deblock=1:-3:-3 / analyse=0x3:0x113 / me=umh / subme=11 / psy=1 / psy_rd=1.00:0.10 / mixed_ref=1 / me_range=64 / chroma_me=1 / trellis=2 / 8x8dct=1 / cqm=0 / deadzone=21,11 / fast_pskip=0 / chroma_qp_offset=-3 / threads=6 / lookahead_threads=1 / sliced_threads=0 / nr=0 / decimate=0 / interlaced=0 / bluray_compat=0 / constrained_intra=0 / bframes=9 / b_pyramid=2 / b_adapt=2 / b_bias=0 / direct=3 / weightb=1 / open_gop=0 / weightp=2 / keyint=240 / keyint_min=23 / scenecut=40 / intra_refresh=0 / rc_lookahead=240 / rc=2pass / mbtree=1 / bitrate=12500 / ratetol=1.0 / qcomp=0.70 / qpmin=0 / qpmax=69 / qpstep=4 / cplxblur=20.0 / qblur=0.5 / vbv_maxrate=38000 / vbv_bufsize=30000 / nal_hrd=none / ip_ratio=1.40 / aq=2:1.00
Language : English
Default : Yes
Forced : No

Audio #1

ID : 2
Format : DTS
Format/Info : Digital Theater Systems
Codec ID : A_DTS
Duration : 1 h 56 min
Bit rate mode : Constant
Bit rate : 1 509 kb/s
Channel(s) : 6 channels
Channel layout : C L R Ls Rs LFE
Sampling rate : 48.0 kHz
Frame rate : 93.750 FPS (512 SPF)
Bit depth : 24 bits
Compression mode : Lossy
Stream size : 1.23 GiB (11%)
Title : DTS 5.1
Language : English
Default : Yes
Forced : No

Audio #2

ID : 3
Format : MPEG Audio
Format version : Version 2
Format profile : Layer 3
Format settings : Joint stereo / MS Stereo
Codec ID : A_MPEG/L3
Codec ID/Hint : MP3
Duration : 1 h 56 min
Bit rate mode : Constant
Bit rate : 64.0 kb/s
Channel(s) : 2 channels
Sampling rate : 24.0 kHz
Frame rate : 41.667 FPS (576 SPF)
Compression mode : Lossy
Stream size : 53.5 MiB (0%)
Title : Director's Commentary
Writing library : LAME3.99r
Encoding settings : -m j -V 4 -q 2 -lowpass 11 -b 64
Language : English
Default : No
Forced : No

Audio #3

ID : 4
Format : MPEG Audio
Format version : Version 2
Format profile : Layer 3
Format settings : Joint stereo / MS Stereo
Codec ID : A_MPEG/L3
Codec ID/Hint : MP3
Duration : 1 h 56 min
Bit rate mode : Constant
Bit rate : 64.0 kb/s
Channel(s) : 2 channels
Sampling rate : 24.0 kHz
Frame rate : 41.667 FPS (576 SPF)
Compression mode : Lossy
Stream size : 53.5 MiB (0%)
Title : Director's + Producer Commentary
Writing library : LAME3.99r
Encoding settings : -m j -V 4 -q 2 -lowpass 11 -b 64
Language : English
Default : No
Forced : No

Audio #4

ID : 5
Format : MPEG Audio
Format version : Version 2
Format profile : Layer 3
Format settings : Joint stereo / MS Stereo
Codec ID : A_MPEG/L3
Codec ID/Hint : MP3
Duration : 1 h 56 min
Bit rate mode : Constant
Bit rate : 64.0 kb/s
Channel(s) : 2 channels
Sampling rate : 24.0 kHz
Frame rate : 41.667 FPS (576 SPF)
Compression mode : Lossy
Stream size : 53.5 MiB (0%)
Title : Writer + Wesley Snipes Commentary
Writing library : LAME3.99r
Encoding settings : -m j -V 4 -q 2 -lowpass 11 -b 64
Language : English
Default : No
Forced : No

Text

ID : 6
Format : UTF-8
Codec ID : S_TEXT/UTF8
Codec ID/Info : UTF-8 Plain Text
Title : English
Language : English
Default : No
Forced : No

Menu

00:00:00.000 : en:Blood Donors
00:05:03.136 : en:Bike The Bullet
00:08:45.358 : en:Blood Lines
00:10:58.658 : en:"Detox"
00:17:00.645 : en:Suspicious Activity
00:23:12.891 : en:"Cancer With A Purpose"
00:27:50.377 : en:Healthy Skepticism
00:28:37.090 : en:Dealer Frenzy
00:30:03.885 : en:Leadership Training
00:33:27.631 : en:"The House Of Pain"
00:52:03.537 : en:Immunity Challenge
00:55:23.445 : en:Mutant Misery
00:58:13.615 : en:Blood Bath
00:59:13.884 : en:Carrier Autopsy
01:03:29.764 : en:"Keep Your Enemies Closer"
01:08:14.424 : en:Daylight Hunting
01:14:30.257 : en:"Regroup"
01:18:51.727 : en:Collateral Damage
01:22:00.791 : en:Designing Vermin
01:32:09.232 : en:Thirst Quenching
01:38:02.752 : en:Prodigal Son
01:46:24.378 : en:Romantic Sunrise
01:48:28.460 : en:Loose End
01:49:13.964 : en:End Credits