General

Unique ID : 244925300096465343030466166200599173242 (0xB842E59F214854A9B0981438E019D87A)
Complete name : /home/30nama/movies/b/Blade_II_2002_10bit_1080p_x265_BrRip_30nama_30NAMA.mkv
Format : Matroska
Format version : Version 4
File size : 3.59 GiB
Duration : 1 h 56 min
Overall bit rate : 4 400 kb/s
Encoded date : UTC 2020-09-10 06:54:45
Writing application : mkvmerge v9.6.0 ('Slave To Your Mind') 64bit
Writing library : libebml v1.3.4 + libmatroska v1.4.5

Video

ID : 1
Format : HEVC
Format/Info : High Efficiency Video Coding
Format profile : Main 10@L5.1@Main
Codec ID : V_MPEGH/ISO/HEVC
Duration : 1 h 56 min
Bit rate : 3 982 kb/s
Width : 1 920 pixels
Height : 1 080 pixels
Display aspect ratio : 16:9
Frame rate mode : Constant
Frame rate : 23.976 (24000/1001) FPS
Color space : YUV
Chroma subsampling : 4:2:0
Bit depth : 10 bits
Bits/(Pixel*Frame) : 0.080
Stream size : 3.25 GiB (90%)
Writing library : x265 3.2+20-a4e060a44839:[Windows][MSVC 1900][64 bit] 10bit
Encoding settings : cpuid=1111039 / frame-threads=4 / numa-pools=16 / wpp / no-pmode / no-pme / no-psnr / no-ssim / log-level=2 / input-csp=1 / input-res=1920x1080 / interlace=0 / total-frames=168131 / level-idc=51 / high-tier=1 / uhd-bd=0 / ref=3 / no-allow-non-conformance / no-repeat-headers / annexb / no-aud / no-hrd / info / hash=0 / no-temporal-layers / open-gop / min-keyint=23 / keyint=250 / gop-lookahead=0 / bframes=4 / b-adapt=0 / b-pyramid / bframe-bias=0 / rc-lookahead=15 / lookahead-slices=6 / scenecut=40 / hist-scenecut=0 / radl=0 / no-splice / no-intra-refresh / ctu=64 / min-cu-size=8 / no-rect / no-amp / max-tu-size=32 / tu-inter-depth=1 / tu-intra-depth=1 / limit-tu=0 / rdoq-level=0 / dynamic-rd=0.00 / no-ssim-rd / signhide / no-tskip / nr-intra=0 / nr-inter=0 / no-constrained-intra / strong-intra-smoothing / max-merge=2 / limit-refs=3 / no-limit-modes / me=1 / subme=2 / merange=57 / temporal-mvp / no-frame-dup / no-hme / weightp / no-weightb / no-analyze-src-pics / deblock=-1:-1 / sao / no-sao-non-deblock / rd=2 / selective-sao=4 / no-early-skip / rskip / fast-intra / no-tskip-fast / no-cu-lossless / no-b-intra / no-splitrd-skip / rdpenalty=0 / psy-rd=2.00 / psy-rdoq=0.00 / no-rd-refine / no-lossless / cbqpoffs=0 / crqpoffs=0 / rc=abr / bitrate=3985 / qcomp=0.60 / qpstep=4 / stats-write=0 / stats-read=2 / cplxblur=20.0 / qblur=0.5 / ipratio=1.40 / pbratio=1.30 / aq-mode=2 / aq-strength=1.00 / cutree / zone-count=0 / no-strict-cbr / qg-size=32 / no-rc-grain / qpmax=69 / qpmin=0 / no-const-vbv / sar=0 / overscan=0 / videoformat=5 / range=0 / colorprim=2 / transfer=2 / colormatrix=2 / chromaloc=0 / display-window=0 / cll=0,0 / min-luma=0 / max-luma=1023 / log2-max-poc-lsb=8 / vui-timing-info / vui-hrd-info / slices=1 / no-opt-qp-pps / no-opt-ref-list-length-pps / no-multi-pass-opt-rps / scenecut-bias=0.05 / hist-threshold=0.01 / no-opt-cu-delta-qp / no-aq-motion / no-hdr / no-hdr-opt / no-dhdr10-opt / no-idr-recovery-sei / analysis-reuse-level=5 / scale-factor=0 / refine-intra=0 / refine-inter=0 / refine-mv=1 / refine-ctu-distortion=0 / no-limit-sao / ctu-info=0 / no-lowpass-dct / refine-analysis-type=0 / copy-pic=1 / max-ausize-factor=1.0 / no-dynamic-refine / no-single-sei / no-hevc-aq / no-svt / no-field / qp-adaptation-range=1.00 / no-scenecut-aware-qp
Default : Yes
Forced : No

Audio

ID : 2
Format : AAC LC
Format/Info : Advanced Audio Codec Low Complexity
Codec ID : A_AAC-2
Duration : 1 h 56 min
Bit rate : 416 kb/s
Channel(s) : 6 channels
Channel layout : C L R Ls Rs LFE
Sampling rate : 48.0 kHz
Frame rate : 46.875 FPS (1024 SPF)
Compression mode : Lossy
Delay relative to video : 9 ms
Stream size : 348 MiB (9%)
Language : English
Default : Yes
Forced : No

Text

ID : 3
Format : UTF-8
Codec ID : S_TEXT/UTF8
Codec ID/Info : UTF-8 Plain Text
Duration : 1 h 48 min
Bit rate : 27 b/s
Count of elements : 677
Stream size : 22.1 KiB (0%)
Language : English
Default : No
Forced : No

Menu

00:00:00.000 : en:Blood Donors
00:05:03.136 : en:Bike The Bullet
00:08:45.358 : en:Blood Lines
00:10:58.658 : en:"Detox"
00:17:00.645 : en:Suspicious Activity
00:23:12.891 : en:"Cancer With A Purpose"
00:27:50.377 : en:Healthy Skepticism
00:28:37.090 : en:Dealer Frenzy
00:30:03.885 : en:Leadership Training
00:33:27.631 : en:"The House Of Pain"
00:52:03.537 : en:Immunity Challenge
00:55:23.445 : en:Mutant Misery
00:58:13.615 : en:Blood Bath
00:59:13.884 : en:Carrier Autopsy
01:03:29.764 : en:"Keep Your Enemies Closer"
01:08:14.424 : en:Daylight Hunting
01:14:30.257 : en:"Regroup"
01:18:51.727 : en:Collateral Damage
01:22:00.791 : en:Designing Vermin
01:32:09.232 : en:Thirst Quenching
01:38:02.752 : en:Prodigal Son
01:46:24.378 : en:Romantic Sunrise
01:48:28.460 : en:Loose End
01:49:13.964 : en:End Credits