General

Unique ID : 223309598169802587340464637553736105593 (0xA7FFDD3C1BBBC59FAE3FB08F876F3E79)
Complete name : /home/30nama/movies/b/Blade_II_2002_720p_BrRip_30nama_30NAMA.mkv
Format : Matroska
Format version : Version 4
File size : 989 MiB
Duration : 1 h 56 min
Overall bit rate : 1 183 kb/s
Encoded date : UTC 2020-09-11 20:00:35
Writing application : mkvmerge v9.6.0 ('Slave To Your Mind') 64bit
Writing library : libebml v1.3.4 + libmatroska v1.4.5

Video

ID : 1
Format : AVC
Format/Info : Advanced Video Codec
Format profile : High@L4.1
Format settings : CABAC / 5 Ref Frames
Format settings, CABAC : Yes
Format settings, ReFrames : 5 frames
Codec ID : V_MPEG4/ISO/AVC
Duration : 1 h 56 min
Bit rate : 1 100 kb/s
Width : 1 280 pixels
Height : 720 pixels
Display aspect ratio : 16:9
Frame rate mode : Constant
Frame rate : 23.976 (24000/1001) FPS
Color space : YUV
Chroma subsampling : 4:2:0
Bit depth : 8 bits
Scan type : Progressive
Bits/(Pixel*Frame) : 0.050
Stream size : 919 MiB (93%)
Writing library : x264 core 148 r2721 72d53ab
Encoding settings : cabac=1 / ref=5 / deblock=1:-1:-1 / analyse=0x3:0x113 / me=hex / subme=8 / psy=1 / psy_rd=1.00:0.00 / mixed_ref=1 / me_range=16 / chroma_me=1 / trellis=2 / 8x8dct=1 / cqm=0 / deadzone=21,11 / fast_pskip=1 / chroma_qp_offset=-2 / threads=48 / lookahead_threads=5 / sliced_threads=0 / nr=0 / decimate=1 / interlaced=0 / bluray_compat=0 / constrained_intra=0 / bframes=3 / b_pyramid=2 / b_adapt=1 / b_bias=0 / direct=3 / weightb=1 / open_gop=0 / weightp=2 / keyint=250 / keyint_min=23 / scenecut=40 / intra_refresh=0 / rc_lookahead=50 / rc=2pass / mbtree=1 / bitrate=1100 / ratetol=1.0 / qcomp=0.60 / qpmin=0 / qpmax=69 / qpstep=4 / cplxblur=20.0 / qblur=0.5 / vbv_maxrate=78125 / vbv_bufsize=62500 / nal_hrd=none / filler=0 / ip_ratio=1.40 / aq=1:1.00
Default : Yes
Forced : No

Audio

ID : 2
Format : AAC LC SBR
Format/Info : Advanced Audio Codec Low Complexity with Spectral Band Replication
Commercial name : HE-AAC
Format settings : Explicit
Codec ID : A_AAC-2
Duration : 1 h 56 min
Bit rate : 81.7 kb/s
Channel(s) : 2 channels
Channel layout : L R
Sampling rate : 48.0 kHz
Frame rate : 23.438 FPS (2048 SPF)
Compression mode : Lossy
Delay relative to video : 31 ms
Stream size : 68.3 MiB (7%)
Language : English
Default : Yes
Forced : No

Text

ID : 3
Format : UTF-8
Codec ID : S_TEXT/UTF8
Codec ID/Info : UTF-8 Plain Text
Duration : 1 h 48 min
Bit rate : 27 b/s
Count of elements : 677
Stream size : 22.1 KiB (0%)
Language : English
Default : No
Forced : No

Menu

00:00:00.000 : en:Blood Donors
00:05:03.136 : en:Bike The Bullet
00:08:45.358 : en:Blood Lines
00:10:58.658 : en:"Detox"
00:17:00.645 : en:Suspicious Activity
00:23:12.891 : en:"Cancer With A Purpose"
00:27:50.377 : en:Healthy Skepticism
00:28:37.090 : en:Dealer Frenzy
00:30:03.885 : en:Leadership Training
00:33:27.631 : en:"The House Of Pain"
00:52:03.537 : en:Immunity Challenge
00:55:23.445 : en:Mutant Misery
00:58:13.615 : en:Blood Bath
00:59:13.884 : en:Carrier Autopsy
01:03:29.764 : en:"Keep Your Enemies Closer"
01:08:14.424 : en:Daylight Hunting
01:14:30.257 : en:"Regroup"
01:18:51.727 : en:Collateral Damage
01:22:00.791 : en:Designing Vermin
01:32:09.232 : en:Thirst Quenching
01:38:02.752 : en:Prodigal Son
01:46:24.378 : en:Romantic Sunrise
01:48:28.460 : en:Loose End
01:49:13.964 : en:End Credits