General

Unique ID : 243102272766233916623093214416601124480 (0xB6E3CB6F4A5E96B867F0D6CF47508E80)
Complete name : /home/30nama/movies/d/Dad_Wanted_2020_1080p_WEB-DL_AC3_pawel2006_30NAMA.mkv
Format : Matroska
Format version : Version 4
File size : 4.48 GiB
Duration : 1 h 43 min
Overall bit rate mode : Variable
Overall bit rate : 6 215 kb/s
Encoded date : UTC 2020-09-11 07:07:06
Writing application : mkvmerge v49.0.0 ('Sick Of Losing Soulmates') 64-bit
Writing library : libebml v1.4.0 + libmatroska v1.6.1

Video

ID : 1
Format : AVC
Format/Info : Advanced Video Codec
Format profile : Main@L4
Format settings : CABAC / 3 Ref Frames
Format settings, CABAC : Yes
Format settings, ReFrames : 3 frames
Codec ID : V_MPEG4/ISO/AVC
Duration : 1 h 43 min
Bit rate mode : Variable
Bit rate : 5 620 kb/s
Maximum bit rate : 8 430 kb/s
Width : 1 920 pixels
Height : 1 080 pixels
Display aspect ratio : 16:9
Frame rate mode : Constant
Frame rate : 24.000 FPS
Color space : YUV
Chroma subsampling : 4:2:0
Bit depth : 8 bits
Scan type : Progressive
Bits/(Pixel*Frame) : 0.113
Stream size : 4.01 GiB (90%)
Writing library : x264 core 148 r2722 1b0121b
Encoding settings : cabac=1 / ref=3 / deblock=1:0:0 / analyse=0x1:0x111 / me=umh / subme=10 / psy=1 / psy_rd=1.00:0.00 / mixed_ref=1 / me_range=24 / chroma_me=1 / trellis=2 / 8x8dct=0 / cqm=0 / deadzone=21,11 / fast_pskip=1 / chroma_qp_offset=-2 / threads=8 / lookahead_threads=1 / sliced_threads=0 / nr=0 / decimate=1 / interlaced=0 / bluray_compat=0 / stitchable=1 / constrained_intra=0 / bframes=2 / b_pyramid=0 / b_adapt=2 / b_bias=0 / direct=3 / weightb=1 / open_gop=0 / weightp=2 / keyint=250 / keyint_min=24 / scenecut=0 / intra_refresh=0 / rc_lookahead=48 / rc=2pass / mbtree=1 / bitrate=5620 / ratetol=1.0 / qcomp=0.50 / qpmin=6 / qpmax=51 / qpstep=4 / cplxblur=20.0 / qblur=0.5 / vbv_maxrate=8430 / vbv_bufsize=11240 / nal_hrd=vbr / filler=0 / ip_ratio=1.40 / aq=1:1.00
Default : Yes
Forced : No

Audio

ID : 2
Format : E-AC-3
Format/Info : Enhanced AC-3
Commercial name : Dolby Digital Plus
Codec ID : A_EAC3
Duration : 1 h 43 min
Bit rate mode : Constant
Bit rate : 640 kb/s
Channel(s) : 6 channels
Channel layout : L R C LFE Ls Rs
Sampling rate : 48.0 kHz
Frame rate : 31.250 FPS (1536 SPF)
Compression mode : Lossy
Stream size : 472 MiB (10%)
Title : Latin American
Language : Spanish
Service kind : Complete Main
Default : Yes
Forced : No

Text #1

ID : 3
Format : UTF-8
Codec ID : S_TEXT/UTF8
Codec ID/Info : UTF-8 Plain Text
Duration : 1 h 37 min
Bit rate : 60 b/s
Count of elements : 1486
Stream size : 43.3 KiB (0%)
Language : English
Default : Yes
Forced : No

Text #2

ID : 4
Format : UTF-8
Codec ID : S_TEXT/UTF8
Codec ID/Info : UTF-8 Plain Text
Duration : 1 h 42 min
Bit rate : 75 b/s
Count of elements : 1846
Stream size : 56.4 KiB (0%)
Title : SDH
Language : English
Default : No
Forced : No

Text #3

ID : 5
Format : UTF-8
Codec ID : S_TEXT/UTF8
Codec ID/Info : UTF-8 Plain Text
Duration : 1 h 36 min
Bit rate : 73 b/s
Count of elements : 1693
Stream size : 51.9 KiB (0%)
Title : Latin American (SDH)
Language : Spanish
Default : No
Forced : No

Text #4

ID : 6
Format : UTF-8
Codec ID : S_TEXT/UTF8
Codec ID/Info : UTF-8 Plain Text
Duration : 1 h 37 min
Bit rate : 103 b/s
Count of elements : 1493
Stream size : 73.9 KiB (0%)
Language : Arabic
Default : No
Forced : No

Text #5

ID : 7
Format : UTF-8
Codec ID : S_TEXT/UTF8
Codec ID/Info : UTF-8 Plain Text
Duration : 1 h 37 min
Bit rate : 58 b/s
Count of elements : 1078
Stream size : 41.7 KiB (0%)
Language : Czech
Default : No
Forced : No

Text #6

ID : 8
Format : UTF-8
Codec ID : S_TEXT/UTF8
Codec ID/Info : UTF-8 Plain Text
Duration : 1 h 42 min
Bit rate : 48 b/s
Count of elements : 1486
Stream size : 36.2 KiB (0%)
Language : Danish
Default : No
Forced : No

Text #7

ID : 9
Format : UTF-8
Codec ID : S_TEXT/UTF8
Codec ID/Info : UTF-8 Plain Text
Duration : 1 h 42 min
Bit rate : 52 b/s
Count of elements : 1454
Stream size : 39.6 KiB (0%)
Language : German
Default : No
Forced : No

Text #8

ID : 10
Format : UTF-8
Codec ID : S_TEXT/UTF8
Codec ID/Info : UTF-8 Plain Text
Duration : 1 h 42 min
Bit rate : 93 b/s
Count of elements : 1520
Stream size : 70.3 KiB (0%)
Language : Greek
Default : No
Forced : No

Text #9

ID : 11
Format : UTF-8
Codec ID : S_TEXT/UTF8
Codec ID/Info : UTF-8 Plain Text
Duration : 2 s 458 ms
Bit rate : 133 b/s
Count of elements : 1
Stream size : 41.0 Bytes (0%)
Title : Latin American (Forced)
Language : Spanish
Default : No
Forced : No

Text #10

ID : 12
Format : UTF-8
Codec ID : S_TEXT/UTF8
Codec ID/Info : UTF-8 Plain Text
Duration : 1 h 42 min
Bit rate : 53 b/s
Count of elements : 1517
Stream size : 40.4 KiB (0%)
Language : Finnish
Default : No
Forced : No

Text #11

ID : 13
Format : UTF-8
Codec ID : S_TEXT/UTF8
Codec ID/Info : UTF-8 Plain Text
Duration : 1 h 42 min
Bit rate : 53 b/s
Count of elements : 1441
Stream size : 39.8 KiB (0%)
Language : French
Default : No
Forced : No

Text #12

ID : 14
Format : UTF-8
Codec ID : S_TEXT/UTF8
Codec ID/Info : UTF-8 Plain Text
Duration : 1 h 37 min
Bit rate : 94 b/s
Count of elements : 1475
Stream size : 67.5 KiB (0%)
Language : Hebrew
Default : No
Forced : No

Text #13

ID : 15
Format : UTF-8
Codec ID : S_TEXT/UTF8
Codec ID/Info : UTF-8 Plain Text
Duration : 1 h 42 min
Bit rate : 160 b/s
Count of elements : 1496
Stream size : 120 KiB (0%)
Language : Hindi
Default : No
Forced : No

Text #14

ID : 16
Format : UTF-8
Codec ID : S_TEXT/UTF8
Codec ID/Info : UTF-8 Plain Text
Duration : 1 h 42 min
Bit rate : 50 b/s
Count of elements : 1482
Stream size : 37.8 KiB (0%)
Language : Croatian
Default : No
Forced : No

Text #15

ID : 17
Format : UTF-8
Codec ID : S_TEXT/UTF8
Codec ID/Info : UTF-8 Plain Text
Duration : 1 h 42 min
Bit rate : 56 b/s
Count of elements : 1440
Stream size : 42.0 KiB (0%)
Language : Hungarian
Default : No
Forced : No

Text #16

ID : 18
Format : UTF-8
Codec ID : S_TEXT/UTF8
Codec ID/Info : UTF-8 Plain Text
Duration : 1 h 42 min
Bit rate : 53 b/s
Count of elements : 1445
Stream size : 39.9 KiB (0%)
Language : Indonesian
Default : No
Forced : No

Text #17

ID : 19
Format : UTF-8
Codec ID : S_TEXT/UTF8
Codec ID/Info : UTF-8 Plain Text
Duration : 1 h 42 min
Bit rate : 60 b/s
Count of elements : 1497
Stream size : 45.6 KiB (0%)
Language : Italian
Default : No
Forced : No

Text #18

ID : 20
Format : UTF-8
Codec ID : S_TEXT/UTF8
Codec ID/Info : UTF-8 Plain Text
Duration : 1 h 42 min
Bit rate : 52 b/s
Count of elements : 1347
Stream size : 39.4 KiB (0%)
Language : Japanese
Default : No
Forced : No

Text #19

ID : 21
Format : UTF-8
Codec ID : S_TEXT/UTF8
Codec ID/Info : UTF-8 Plain Text
Duration : 1 h 42 min
Bit rate : 71 b/s
Count of elements : 1504
Stream size : 53.7 KiB (0%)
Language : Korean
Default : No
Forced : No

Text #20

ID : 22
Format : UTF-8
Codec ID : S_TEXT/UTF8
Codec ID/Info : UTF-8 Plain Text
Duration : 1 h 42 min
Bit rate : 53 b/s
Count of elements : 1497
Stream size : 39.9 KiB (0%)
Language : Malay
Default : No
Forced : No

Text #21

ID : 23
Format : UTF-8
Codec ID : S_TEXT/UTF8
Codec ID/Info : UTF-8 Plain Text
Duration : 1 h 42 min
Bit rate : 51 b/s
Count of elements : 1124
Stream size : 38.8 KiB (0%)
Language : Norwegian Bokmal
Default : No
Forced : No

Text #22

ID : 24
Format : UTF-8
Codec ID : S_TEXT/UTF8
Codec ID/Info : UTF-8 Plain Text
Duration : 1 h 37 min
Bit rate : 54 b/s
Count of elements : 1389
Stream size : 39.0 KiB (0%)
Language : Dutch
Default : No
Forced : No

Text #23

ID : 25
Format : UTF-8
Codec ID : S_TEXT/UTF8
Codec ID/Info : UTF-8 Plain Text
Duration : 1 h 42 min
Bit rate : 46 b/s
Count of elements : 1512
Stream size : 35.1 KiB (0%)
Language : Polish
Default : No
Forced : No

Text #24

ID : 26
Format : UTF-8
Codec ID : S_TEXT/UTF8
Codec ID/Info : UTF-8 Plain Text
Duration : 1 h 42 min
Bit rate : 53 b/s
Count of elements : 1445
Stream size : 40.3 KiB (0%)
Title : European
Language : Portuguese
Default : No
Forced : No

Text #25

ID : 27
Format : UTF-8
Codec ID : S_TEXT/UTF8
Codec ID/Info : UTF-8 Plain Text
Duration : 1 h 37 min
Bit rate : 57 b/s
Count of elements : 1446
Stream size : 41.0 KiB (0%)
Title : Brazilian
Language : Portuguese
Default : No
Forced : No

Text #26

ID : 28
Format : UTF-8
Codec ID : S_TEXT/UTF8
Codec ID/Info : UTF-8 Plain Text
Duration : 1 h 42 min
Bit rate : 58 b/s
Count of elements : 1484
Stream size : 43.7 KiB (0%)
Language : Romanian
Default : No
Forced : No

Text #27

ID : 29
Format : UTF-8
Codec ID : S_TEXT/UTF8
Codec ID/Info : UTF-8 Plain Text
Duration : 1 h 42 min
Bit rate : 88 b/s
Count of elements : 1501
Stream size : 66.3 KiB (0%)
Language : Russian
Default : No
Forced : No

Text #28

ID : 30
Format : UTF-8
Codec ID : S_TEXT/UTF8
Codec ID/Info : UTF-8 Plain Text
Duration : 1 h 42 min
Bit rate : 50 b/s
Count of elements : 1467
Stream size : 37.8 KiB (0%)
Language : Swedish
Default : No
Forced : No

Text #29

ID : 31
Format : UTF-8
Codec ID : S_TEXT/UTF8
Codec ID/Info : UTF-8 Plain Text
Duration : 1 h 42 min
Bit rate : 154 b/s
Count of elements : 1499
Stream size : 116 KiB (0%)
Language : Thai
Default : No
Forced : No

Text #30

ID : 32
Format : UTF-8
Codec ID : S_TEXT/UTF8
Codec ID/Info : UTF-8 Plain Text
Duration : 1 h 42 min
Bit rate : 55 b/s
Count of elements : 1497
Stream size : 41.9 KiB (0%)
Language : Turkish
Default : No
Forced : No

Text #31

ID : 33
Format : UTF-8
Codec ID : S_TEXT/UTF8
Codec ID/Info : UTF-8 Plain Text
Duration : 1 h 42 min
Bit rate : 77 b/s
Count of elements : 1459
Stream size : 57.7 KiB (0%)
Language : Vietnamese
Default : No
Forced : No

Text #32

ID : 34
Format : UTF-8
Codec ID : S_TEXT/UTF8
Codec ID/Info : UTF-8 Plain Text
Duration : 1 h 42 min
Bit rate : 63 b/s
Count of elements : 1501
Stream size : 47.7 KiB (0%)
Title : Simplified
Language : Chinese
Default : No
Forced : No

Text #33

ID : 35
Format : UTF-8
Codec ID : S_TEXT/UTF8
Codec ID/Info : UTF-8 Plain Text
Duration : 1 h 42 min
Bit rate : 60 b/s
Count of elements : 1493
Stream size : 45.7 KiB (0%)
Title : Traditional
Language : Chinese
Default : No
Forced : No