General

Unique ID : 116305328341837948720912849736708469218 (0x577F97699076866231D5A65F609131E2)
Complete name : /movies/d/Dark_Phoenix_2019_1080p_BluRay_GECKOS_30NAMA.mkv
Format : Matroska
Format version : Version 4
File size : 8.74 GiB
Duration : 1 h 53 min
Overall bit rate : 11.0 Mb/s
Encoded date : UTC 2019-08-29 15:03:44
Writing application : mkvmerge v36.0.0 ('Is That Jazz?') 64-bit
Writing library : libebml v1.3.9 + libmatroska v1.5.2

Video

ID : 1
Format : AVC
Format/Info : Advanced Video Codec
Format profile : High@L4.1
Format settings : CABAC / 5 Ref Frames
Format settings, CABAC : Yes
Format settings, ReFrames : 5 frames
Codec ID : V_MPEG4/ISO/AVC
Duration : 1 h 53 min
Bit rate : 9 479 kb/s
Width : 1 920 pixels
Height : 808 pixels
Display aspect ratio : 2.40:1
Frame rate mode : Constant
Frame rate : 23.976 (24000/1001) FPS
Color space : YUV
Chroma subsampling : 4:2:0
Bit depth : 8 bits
Scan type : Progressive
Bits/(Pixel*Frame) : 0.255
Stream size : 7.54 GiB (86%)
Writing library : x264 core 158 r2984 3759fcb
Encoding settings : cabac=1 / ref=5 / deblock=1:-3:-3 / analyse=0x3:0x133 / me=umh / subme=8 / psy=1 / psy_rd=1.00:0.00 / mixed_ref=1 / me_range=16 / chroma_me=1 / trellis=1 / 8x8dct=1 / cqm=0 / deadzone=21,11 / fast_pskip=0 / chroma_qp_offset=-2 / threads=25 / lookahead_threads=4 / sliced_threads=0 / nr=0 / decimate=1 / interlaced=0 / bluray_compat=0 / constrained_intra=0 / bframes=3 / b_pyramid=2 / b_adapt=1 / b_bias=0 / direct=3 / weightb=1 / open_gop=0 / weightp=2 / keyint=250 / keyint_min=23 / scenecut=40 / intra_refresh=0 / rc_lookahead=50 / rc=2pass / mbtree=1 / bitrate=9479 / ratetol=1.0 / qcomp=0.60 / qpmin=0 / qpmax=69 / qpstep=4 / cplxblur=20.0 / qblur=0.5 / vbv_maxrate=62500 / vbv_bufsize=78125 / nal_hrd=none / filler=0 / ip_ratio=1.40 / aq=1:1.00
Default : Yes
Forced : No

Audio

ID : 2
Format : DTS
Format/Info : Digital Theater Systems
Codec ID : A_DTS
Duration : 1 h 53 min
Bit rate mode : Constant
Bit rate : 1 509 kb/s
Channel(s) : 6 channels
Channel layout : C L R Ls Rs LFE
Sampling rate : 48.0 kHz
Frame rate : 93.750 FPS (512 SPF)
Bit depth : 24 bits
Compression mode : Lossy
Stream size : 1.20 GiB (14%)
Language : English
Default : Yes
Forced : No

Text

ID : 3
Format : UTF-8
Codec ID : S_TEXT/UTF8
Codec ID/Info : UTF-8 Plain Text
Duration : 31 min 20 s
Bit rate : 0 b/s
Count of elements : 4
Stream size : 168 Bytes (0%)
Title : English Forced
Language : English
Default : Yes
Forced : Yes

Menu

00:00:00.000 : en:00:00:00.000
00:03:28.875 : en:00:03:28.875
00:07:34.621 : en:00:07:34.621
00:11:42.201 : en:00:11:42.201
00:15:44.110 : en:00:15:44.110
00:18:37.408 : en:00:18:37.408
00:25:24.481 : en:00:25:24.481
00:31:40.357 : en:00:31:40.357
00:34:19.307 : en:00:34:19.307
00:40:07.447 : en:00:40:07.447
00:44:36.090 : en:00:44:36.090
00:49:07.778 : en:00:49:07.778
00:55:38.168 : en:00:55:38.168
00:58:57.409 : en:00:58:57.409
01:02:57.190 : en:01:02:57.190
01:10:40.111 : en:01:10:40.111
01:13:42.418 : en:01:13:42.418
01:19:33.477 : en:01:19:33.477
01:22:35.701 : en:01:22:35.701
01:25:49.061 : en:01:25:49.061
01:30:38.350 : en:01:30:38.350
01:32:48.188 : en:01:32:48.188
01:37:59.624 : en:01:37:59.624
01:45:01.045 : en:01:45:01.045