General

Unique ID : 200522101253203550549488654277095823328 (0x96DB26E4FB9526BCF08033CB547997E0)
Complete name : /movies/d/Dark_Phoenix_2019_1080p_BrRip_MkvCage_30NAMA.mkv
Format : Matroska
Format version : Version 4
File size : 2.22 GiB
Duration : 1 h 53 min
Overall bit rate : 2 789 kb/s
Movie name : Dark.Phoenix.2019.720p.BRRip.x264-MkvCage.Com
Encoded date : UTC 2019-08-29 17:33:40
Writing application : mkvmerge v35.0.0 ('All The Love In The World') 64-bit
Writing library : libebml v1.3.9 + libmatroska v1.5.2

Video

ID : 2
Format : AVC
Format/Info : Advanced Video Codec
Format profile : High@L4.1
Format settings : CABAC / 5 Ref Frames
Format settings, CABAC : Yes
Format settings, ReFrames : 5 frames
Codec ID : V_MPEG4/ISO/AVC
Duration : 1 h 53 min
Bit rate : 2 532 kb/s
Width : 1 920 pixels
Height : 808 pixels
Display aspect ratio : 2.40:1
Frame rate mode : Constant
Frame rate : 23.976 (24000/1001) FPS
Color space : YUV
Chroma subsampling : 4:2:0
Bit depth : 8 bits
Scan type : Progressive
Bits/(Pixel*Frame) : 0.068
Stream size : 2.01 GiB (91%)
Writing library : x264 core 157 r2935 545de2f
Encoding settings : cabac=1 / ref=5 / deblock=1:-1:-1 / analyse=0x3:0x133 / me=umh / subme=9 / psy=1 / psy_rd=1.00:0.10 / mixed_ref=1 / me_range=24 / chroma_me=1 / trellis=2 / 8x8dct=1 / cqm=0 / deadzone=21,11 / fast_pskip=1 / chroma_qp_offset=-3 / threads=25 / lookahead_threads=2 / sliced_threads=0 / nr=0 / decimate=1 / interlaced=0 / bluray_compat=0 / constrained_intra=0 / bframes=3 / b_pyramid=2 / b_adapt=2 / b_bias=0 / direct=3 / weightb=1 / open_gop=0 / weightp=2 / keyint=250 / keyint_min=23 / scenecut=40 / intra_refresh=0 / rc_lookahead=60 / rc=2pass / mbtree=1 / bitrate=2532 / ratetol=1.0 / qcomp=0.60 / qpmin=0 / qpmax=69 / qpstep=4 / cplxblur=20.0 / qblur=0.5 / ip_ratio=1.40 / aq=1:1.00
Default : Yes
Forced : No

Audio

ID : 3
Format : AAC LC SBR
Format/Info : Advanced Audio Codec Low Complexity with Spectral Band Replication
Commercial name : HE-AAC
Format settings : Explicit
Codec ID : A_AAC-2
Duration : 1 h 53 min
Bit rate : 256 kb/s
Channel(s) : 6 channels
Channel layout : C L R Ls Rs LFE
Sampling rate : 48.0 kHz
Frame rate : 23.438 FPS (2048 SPF)
Compression mode : Lossy
Delay relative to video : 43 ms
Stream size : 209 MiB (9%)
Language : English
Default : Yes
Forced : No

Text #1

ID : 1
Format : UTF-8
Codec ID : S_TEXT/UTF8
Codec ID/Info : UTF-8 Plain Text
Duration : 1 h 52 min
Bit rate : 37 b/s
Count of elements : 1135
Stream size : 31.4 KiB (0%)
Language : English
Default : Yes
Forced : No

Text #2

ID : 4
Format : UTF-8
Codec ID : S_TEXT/UTF8
Codec ID/Info : UTF-8 Plain Text
Duration : 31 min 20 s
Bit rate : 0 b/s
Count of elements : 4
Stream size : 168 Bytes (0%)
Title : English Forced
Language : English
Default : No
Forced : Yes

Menu

00:00:00.000 : en:00:00:00.000
00:03:28.875 : en:00:03:28.875
00:07:34.621 : en:00:07:34.621
00:11:42.201 : en:00:11:42.201
00:15:44.110 : en:00:15:44.110
00:18:37.408 : en:00:18:37.408
00:25:24.481 : en:00:25:24.481
00:31:40.357 : en:00:31:40.357
00:34:19.307 : en:00:34:19.307
00:40:07.447 : en:00:40:07.447
00:44:36.090 : en:00:44:36.090
00:49:07.778 : en:00:49:07.778
00:55:38.168 : en:00:55:38.168
00:58:57.409 : en:00:58:57.409
01:02:57.190 : en:01:02:57.190
01:10:40.111 : en:01:10:40.111
01:13:42.418 : en:01:13:42.418
01:19:33.477 : en:01:19:33.477
01:22:35.701 : en:01:22:35.701
01:25:49.061 : en:01:25:49.061
01:30:38.350 : en:01:30:38.350
01:32:48.188 : en:01:32:48.188
01:37:59.624 : en:01:37:59.624
01:45:01.045 : en:01:45:01.045