General

Unique ID : 82907673285843780873426047033386789488 (0x3E5F6FE32B2A8C21757DABBCD924EA70)
Complete name : /movies/d/Dark_Phoenix_2019_1080p_x265_BrRip_RMTeam_30NAMA.mkv
Format : Matroska
Format version : Version 4
File size : 1.33 GiB
Duration : 1 h 53 min
Overall bit rate : 1 673 kb/s
Movie name : Dark Phoenix - RMTeam, RMZ.cr
Description : Encoded By RMTeam, http:/RMZ.cr
Writing application : Lavf57.71.100
Writing library : Lavf57.71.100
ErrorDetectionType : Per level 1

Video

ID : 1
Format : HEVC
Format/Info : High Efficiency Video Coding
Format profile : Main@L4@Main
Codec ID : V_MPEGH/ISO/HEVC
Duration : 1 h 53 min
Bit rate : 9 472 kb/s
Width : 1 920 pixels
Height : 808 pixels
Display aspect ratio : 2.40:1
Frame rate mode : Variable
Frame rate : 23.976 FPS
Color space : YUV
Chroma subsampling : 4:2:0
Bit depth : 8 bits
Bits/(Pixel*Frame) : 0.255
Stream size : 7.54 GiB
Writing library : x265 2.5+9-fdf39a97ecb8:[Linux][GCC 6.4.0][64 bit] 8bit+10bit+12bit
Encoding settings : cpuid=1173503 / frame-threads=3 / wpp / no-pmode / no-pme / no-psnr / no-ssim / log-level=2 / input-csp=1 / input-res=1920x808 / interlace=0 / total-frames=0 / level-idc=0 / high-tier=1 / uhd-bd=0 / ref=3 / no-allow-non-conformance / no-repeat-headers / annexb / no-aud / no-hrd / info / hash=0 / no-temporal-layers / open-gop / min-keyint=23 / keyint=250 / bframes=4 / b-adapt=2 / b-pyramid / bframe-bias=0 / rc-lookahead=20 / lookahead-slices=5 / scenecut=40 / no-intra-refresh / ctu=64 / min-cu-size=8 / no-rect / no-amp / max-tu-size=32 / tu-inter-depth=1 / tu-intra-depth=1 / limit-tu=0 / rdoq-level=0 / dynamic-rd=0.00 / no-ssim-rd / signhide / no-tskip / nr-intra=0 / nr-inter=0 / no-constrained-intra / strong-intra-smoothing / max-merge=2 / limit-refs=3 / no-limit-modes / me=1 / subme=2 / merange=57 / temporal-mvp / weightp / no-weightb / no-analyze-src-pics / deblock=0:0 / sao / no-sao-non-deblock / rd=3 / no-early-skip / rskip / no-fast-intra / no-tskip-fast / no-cu-lossless / no-b-intra / rdpenalty=0 / psy-rd=2.00 / psy-rdoq=0.00 / no-rd-refine / analysis-reuse-mode=0 / no-lossless / cbqpoffs=0 / crqpoffs=0 / rc=crf / crf=23.5 / qcomp=0.60 / qpstep=4 / stats-write=0 / stats-read=0 / ipratio=1.40 / pbratio=1.30 / aq-mode=1 / aq-strength=1.00 / cutree / zone-count=0 / no-strict-cbr / qg-size=32 / no-rc-grain / qpmax=69 / qpmin=0 / no-const-vbv / sar=1 / overscan=0 / videoformat=5 / range=0 / colorprim=2 / transfer=2 / colormatrix=2 / chromaloc=0 / display-window=0 / max-cll=0,0 / min-luma=0 / max-luma=255 / log2-max-poc-lsb=8 / vui-timing-info / vui-hrd-info / slices=1 / opt-qp-pps / opt-ref-list-length-pps / no-multi-pass-opt-rps / scenecut-bias=0.05 / no-opt-cu-delta-qp / no-aq-motion / no-hdr / no-hdr-opt / no-dhdr10-opt / analysis-reuse-level=5 / scale-factor=0 / refine-intra=0 / refine-inter=0 / refine-mv=0 / no-limit-sao / ctu-info=0
Default : Yes
Forced : No

Audio

ID : 2
Format : AAC LC
Format/Info : Advanced Audio Codec Low Complexity
Codec ID : A_AAC-2
Duration : 1 h 53 min
Bit rate : 1 509 kb/s
Channel(s) : 6 channels
Channel layout : C L R Ls Rs LFE
Sampling rate : 48.0 kHz
Frame rate : 46.875 FPS (1024 SPF)
Compression mode : Lossy
Stream size : 1.20 GiB (90%)
Writing library : Lavc57.89.100 aac
Language : English
Default : Yes
Forced : No

Text

ID : 3
Format : ASS
Codec ID : S_TEXT/ASS
Codec ID/Info : Advanced Sub Station Alpha
Duration : 1 h 5 min
Bit rate : 0 b/s
Count of elements : 4
Compression mode : Lossless
Stream size : 168 Bytes (0%)
Title : English Forced
Writing library : Lavc57.89.100 ssa
Language : English
Default : Yes
Forced : Yes

Menu

00:00:00.000 : :00:00:00.000
00:03:28.875 : :00:03:28.875
00:07:34.621 : :00:07:34.621
00:11:42.201 : :00:11:42.201
00:15:44.110 : :00:15:44.110
00:18:37.408 : :00:18:37.408
00:25:24.481 : :00:25:24.481
00:31:40.357 : :00:31:40.357
00:34:19.307 : :00:34:19.307
00:40:07.447 : :00:40:07.447
00:44:36.090 : :00:44:36.090
00:49:07.778 : :00:49:07.778
00:55:38.168 : :00:55:38.168
00:58:57.409 : :00:58:57.409
01:02:57.190 : :01:02:57.190
01:10:40.111 : :01:10:40.111
01:13:42.418 : :01:13:42.418
01:19:33.477 : :01:19:33.477
01:22:35.701 : :01:22:35.701
01:25:49.061 : :01:25:49.061
01:30:38.350 : :01:30:38.350
01:32:48.188 : :01:32:48.188
01:37:59.624 : :01:37:59.624
01:45:01.045 : :01:45:01.045