General

Unique ID : 142231918941813033015524036992837054814 (0x6B00DF053E817C05D95091576DB3715E)
Complete name : /movies/d/Dark_Phoenix_2019_10bit_1080p_x265_BluRay_Joy_30NAMA.mkv
Format : Matroska
Format version : Version 4
File size : 1.40 GiB
Duration : 1 h 53 min
Overall bit rate : 1 759 kb/s
Movie name : Dark Phoenix 2019 (1080p x265 q22 FS92 Joy)[UTR]
Encoded date : UTC 2019-09-02 02:16:14
Writing application : mkvmerge v32.0.0 ('Astral Progressions') 64-bit
Writing library : libebml v1.3.7 + libmatroska v1.5.0
Cover : Yes
Attachments : cover.jpg
Writing frontend : StaxRip v2.0.2.0, a JoyBell Encode

Video

ID : 1
Format : HEVC
Format/Info : High Efficiency Video Coding
Format profile : Main 10@L4@Main
Codec ID : V_MPEGH/ISO/HEVC
Duration : 1 h 53 min
Bit rate : 1 141 kb/s
Width : 1 920 pixels
Height : 800 pixels
Display aspect ratio : 2.40:1
Frame rate mode : Constant
Frame rate : 23.976 (24000/1001) FPS
Color space : YUV
Chroma subsampling : 4:2:0
Bit depth : 10 bits
Bits/(Pixel*Frame) : 0.031
Stream size : 930 MiB (65%)
Writing library : x265 3.0_Au+24-4217e691387c:[Windows][GCC 9.1.1][64 bit] 10bit
Encoding settings : rc=crf / crf=21.5000 / qcomp=0.60 / qpstep=4 / stats-write=0 / stats-read=0 / qpmax=69 / qpmin=0 / no-lossless / no-cu-lossless / hevc-aq / no-aq-motion / aq-mode=3 / aq-strength=1.00 / cbqpoffs=0 / crqpoffs=0 / ipratio=1.40 / pbratio=1.30 / psy-rd=2.50 / psy-rdoq=0.80 / deblock=-2:-2 / ref=4 / limit-refs=3 / limit-modes / bframes=8 / b-adapt=2 / bframe-bias=20 / b-pyramid / no-b-intra / weightp / no-weightb / keyint=250 / min-keyint=23 / rc-lookahead=80 / gop-lookahead=0 / scenecut=40 / scenecut-bias=0.05 / ctu=64 / min-cu-size=8 / me=3 / subme=5 / merange=57 / rd=4 / no-rd-refine / ssim-rd / dynamic-rd=0.00 / rdoq-level=2 / rdpenalty=0 / cutree / sao / no-limit-sao / no-sao-non-deblock / rect / no-amp / open-gop / max-tu-size=32 / tu-inter-depth=1 / tu-intra-depth=1 / limit-tu=0 / qg-size=32 / wpp / no-pmode / no-pme / no-psnr / ssim / no-tskip / constrained-intra / strong-intra-smoothing / max-merge=5 / nr-intra=0 / nr-inter=0 / input-csp=1 / input-res=1920x800 / interlace=0 / total-frames=163910 / level-idc=0 / high-tier=1cpuid=1111039 / frame-threads=3 / numa-pools=12 / log-level=2 / uhd-bd=0 / lookahead-slices=4 / radl=0 / no-splice / no-intra-refresh / signhide / temporal-mvp / no-analyze-src-pics / early-skip / rskip / no-fast-intra / no-tskip-fast / no-splitrd-skip / zone-count=0 / no-strict-cbr / no-rc-grain / no-const-vbv / no-allow-non-conformance / no-repeat-headers / annexb / no-aud / no-hrd / info / hash=0 / no-temporal-layers / sar=0 / overscan=0 / videoformat=5 / range=0 / colorprim=2 / transfer=2 / colormatrix=2 / chromaloc=0 / display-window=0 / max-cll=0,0 / min-luma=0 / max-luma=1023 / log2-max-poc-lsb=8 / vui-timing-info / vui-hrd-info / slices=1 / no-opt-qp-pps / no-opt-ref-list-length-pps / no-multi-pass-opt-rps / no-opt-cu-delta-qp / no-hdr / no-hdr-opt / no-dhdr10-opt / no-idr-recovery-sei / analysis-reuse-level=5 / scale-factor=0 / refine-intra=0 / refine-inter=0 / refine-mv=0 / refine-ctu-distortion=0 / ctu-info=0 / no-lowpass-dct / refine-analysis-type=0 / copy-pic=1 / max-ausize-factor=1.0 / no-dynamic-refine / no-single-sei / no-svt / qp-adaptation-range=1.00
Default : Yes
Forced : No

Audio #1

ID : 2
Format : AAC LC
Format/Info : Advanced Audio Codec Low Complexity
Codec ID : A_AAC-2
Duration : 1 h 53 min
Bit rate : 437 kb/s
Channel(s) : 8 channels
Channel layout : C L R Ls Rs Lb Rb LFE
Sampling rate : 48.0 kHz
Frame rate : 46.875 FPS (1024 SPF)
Compression mode : Lossy
Delay relative to video : 9 ms
Stream size : 356 MiB (25%)
Language : English
Default : No
Forced : No

Audio #2

ID : 3
Format : AAC LC SBR
Format/Info : Advanced Audio Codec Low Complexity with Spectral Band Replication
Commercial name : HE-AAC
Format settings : Explicit
Codec ID : A_AAC-2
Duration : 1 h 53 min
Bit rate : 48.0 kb/s
Channel(s) : 2 channels
Channel layout : L R
Sampling rate : 48.0 kHz
Frame rate : 23.438 FPS (2048 SPF)
Compression mode : Lossy
Delay relative to video : 31 ms
Stream size : 38.5 MiB (3%)
Title : Commentary
Language : English
Default : No
Forced : No

Text #1

ID : 4
Format : PGS
Muxing mode : zlib
Codec ID : S_HDMV/PGS
Codec ID/Info : Picture based subtitle format used on BDs/HD-DVDs
Duration : 1 h 53 min
Bit rate : 27.8 kb/s
Count of elements : 2830
Stream size : 22.6 MiB (2%)
Language : English
Default : No
Forced : No

Text #2

ID : 5
Format : VobSub
Muxing mode : zlib
Codec ID : S_VOBSUB
Codec ID/Info : Picture based subtitle format used on DVDs
Duration : 1 h 53 min
Bit rate : 7 406 b/s
Count of elements : 1415
Stream size : 6.02 MiB (0%)
Language : English
Default : No
Forced : No

Text #3

ID : 6
Format : VobSub
Muxing mode : zlib
Codec ID : S_VOBSUB
Codec ID/Info : Picture based subtitle format used on DVDs
Duration : 1 h 52 min
Bit rate : 5 174 b/s
Count of elements : 798
Stream size : 4.18 MiB (0%)
Language : Danish
Default : No
Forced : No

Text #4

ID : 7
Format : VobSub
Muxing mode : zlib
Codec ID : S_VOBSUB
Codec ID/Info : Picture based subtitle format used on DVDs
Duration : 1 h 52 min
Bit rate : 5 800 b/s
Count of elements : 1099
Stream size : 4.69 MiB (0%)
Language : Estonian
Default : No
Forced : No

Text #5

ID : 8
Format : VobSub
Muxing mode : zlib
Codec ID : S_VOBSUB
Codec ID/Info : Picture based subtitle format used on DVDs
Duration : 1 h 52 min
Bit rate : 5 337 b/s
Count of elements : 1099
Stream size : 4.31 MiB (0%)
Language : Finnish
Default : No
Forced : No

Text #6

ID : 9
Format : VobSub
Muxing mode : zlib
Codec ID : S_VOBSUB
Codec ID/Info : Picture based subtitle format used on DVDs
Duration : 1 h 52 min
Bit rate : 5 479 b/s
Count of elements : 1100
Stream size : 4.43 MiB (0%)
Language : Hindi
Default : No
Forced : No

Text #7

ID : 10
Format : VobSub
Muxing mode : zlib
Codec ID : S_VOBSUB
Codec ID/Info : Picture based subtitle format used on DVDs
Duration : 1 h 52 min
Bit rate : 5 699 b/s
Count of elements : 1102
Stream size : 4.60 MiB (0%)
Language : Latvian
Default : No
Forced : No

Text #8

ID : 11
Format : VobSub
Muxing mode : zlib
Codec ID : S_VOBSUB
Codec ID/Info : Picture based subtitle format used on DVDs
Duration : 1 h 52 min
Bit rate : 5 375 b/s
Count of elements : 1100
Stream size : 4.34 MiB (0%)
Language : Lithuanian
Default : No
Forced : No

Text #9

ID : 12
Format : VobSub
Muxing mode : zlib
Codec ID : S_VOBSUB
Codec ID/Info : Picture based subtitle format used on DVDs
Duration : 1 h 52 min
Bit rate : 5 448 b/s
Count of elements : 1101
Stream size : 4.40 MiB (0%)
Language : Norwegian Bokmal
Default : No
Forced : No

Text #10

ID : 13
Format : VobSub
Muxing mode : zlib
Codec ID : S_VOBSUB
Codec ID/Info : Picture based subtitle format used on DVDs
Duration : 1 h 52 min
Bit rate : 5 770 b/s
Count of elements : 1100
Stream size : 4.66 MiB (0%)
Language : Russian
Default : No
Forced : No

Text #11

ID : 14
Format : VobSub
Muxing mode : zlib
Codec ID : S_VOBSUB
Codec ID/Info : Picture based subtitle format used on DVDs
Duration : 1 h 52 min
Bit rate : 5 561 b/s
Count of elements : 1101
Stream size : 4.49 MiB (0%)
Language : Swedish
Default : No
Forced : No

Text #12

ID : 15
Format : VobSub
Muxing mode : zlib
Codec ID : S_VOBSUB
Codec ID/Info : Picture based subtitle format used on DVDs
Duration : 1 h 52 min
Bit rate : 7 132 b/s
Count of elements : 1099
Stream size : 5.76 MiB (0%)
Language : Tamil
Default : No
Forced : No

Text #13

ID : 16
Format : VobSub
Muxing mode : zlib
Codec ID : S_VOBSUB
Codec ID/Info : Picture based subtitle format used on DVDs
Duration : 1 h 52 min
Bit rate : 6 026 b/s
Count of elements : 1099
Stream size : 4.87 MiB (0%)
Language : Telugu
Default : No
Forced : No

Text #14

ID : 17
Format : VobSub
Muxing mode : zlib
Codec ID : S_VOBSUB
Codec ID/Info : Picture based subtitle format used on DVDs
Duration : 1 h 52 min
Bit rate : 5 864 b/s
Count of elements : 1103
Stream size : 4.74 MiB (0%)
Language : Ukrainian
Default : No
Forced : No

Text #15

ID : 18
Format : VobSub
Muxing mode : zlib
Codec ID : S_VOBSUB
Codec ID/Info : Picture based subtitle format used on DVDs
Duration : 1 h 53 min
Bit rate : 20.5 kb/s
Count of elements : 2183
Stream size : 16.6 MiB (1%)
Language : English
Default : No
Forced : No

Text #16

ID : 19
Format : VobSub
Muxing mode : zlib
Codec ID : S_VOBSUB
Codec ID/Info : Picture based subtitle format used on DVDs
Duration : 1 h 53 min
Bit rate : 17.3 kb/s
Count of elements : 2176
Stream size : 14.0 MiB (1%)
Language : Danish
Default : No
Forced : No

Text #17

ID : 20
Format : VobSub
Muxing mode : zlib
Codec ID : S_VOBSUB
Codec ID/Info : Picture based subtitle format used on DVDs
Duration : 1 h 53 min
Bit rate : 16.6 kb/s
Count of elements : 2173
Stream size : 13.5 MiB (1%)
Language : Finnish
Default : No
Forced : No

Text #18

ID : 21
Format : VobSub
Muxing mode : zlib
Codec ID : S_VOBSUB
Codec ID/Info : Picture based subtitle format used on DVDs
Duration : 1 h 53 min
Bit rate : 17.6 kb/s
Count of elements : 2176
Stream size : 14.3 MiB (1%)
Language : Norwegian Bokmal
Default : No
Forced : No

Text #19

ID : 22
Format : VobSub
Muxing mode : zlib
Codec ID : S_VOBSUB
Codec ID/Info : Picture based subtitle format used on DVDs
Duration : 1 h 53 min
Bit rate : 17.0 kb/s
Count of elements : 2169
Stream size : 13.8 MiB (1%)
Language : Russian
Default : No
Forced : No

Text #20

ID : 23
Format : VobSub
Muxing mode : zlib
Codec ID : S_VOBSUB
Codec ID/Info : Picture based subtitle format used on DVDs
Duration : 1 h 53 min
Bit rate : 20.6 kb/s
Count of elements : 2176
Stream size : 16.7 MiB (1%)
Language : Swedish
Default : No
Forced : No

Text #21

ID : 24
Format : ASS
Codec ID : S_TEXT/ASS
Codec ID/Info : Advanced Sub Station Alpha
Duration : 1 h 44 min
Bit rate : 92 b/s
Count of elements : 1137
Compression mode : Lossless
Stream size : 71.3 KiB (0%)
Language : Arabic
Default : No
Forced : No

Text #22

ID : 25
Format : ASS
Codec ID : S_TEXT/ASS
Codec ID/Info : Advanced Sub Station Alpha
Duration : 1 h 44 min
Bit rate : 282 b/s
Count of elements : 1075
Compression mode : Lossless
Stream size : 216 KiB (0%)
Language : Chinese
Default : No
Forced : No

Text #23

ID : 26
Format : UTF-8
Codec ID : S_TEXT/UTF8
Codec ID/Info : UTF-8 Plain Text
Duration : 1 h 53 min
Bit rate : 58 b/s
Count of elements : 1121
Stream size : 49.2 KiB (0%)
Language : Persian
Default : No
Forced : No

Text #24

ID : 27
Format : UTF-8
Codec ID : S_TEXT/UTF8
Codec ID/Info : UTF-8 Plain Text
Duration : 1 h 44 min
Bit rate : 42 b/s
Count of elements : 1180
Stream size : 32.6 KiB (0%)
Language : Indonesian
Default : No
Forced : No

Text #25

ID : 28
Format : UTF-8
Codec ID : S_TEXT/UTF8
Codec ID/Info : UTF-8 Plain Text
Duration : 1 h 44 min
Bit rate : 56 b/s
Count of elements : 1195
Stream size : 42.9 KiB (0%)
Language : Vietnamese
Default : No
Forced : No

Menu

00:00:00.000 : en:Chapter 1
00:03:28.875 : en:Chapter 2
00:07:34.621 : en:Chapter 3
00:11:42.201 : en:Chapter 4
00:15:44.110 : en:Chapter 5
00:18:37.408 : en:Chapter 6
00:25:24.481 : en:Chapter 7
00:31:40.357 : en:Chapter 8
00:34:19.307 : en:Chapter 9
00:40:07.447 : en:Chapter 10
00:44:36.090 : en:Chapter 11
00:49:07.778 : en:Chapter 12
00:55:38.168 : en:Chapter 13
00:58:57.409 : en:Chapter 14
01:02:57.190 : en:Chapter 15
01:10:40.111 : en:Chapter 16
01:13:42.418 : en:Chapter 17
01:19:33.477 : en:Chapter 18
01:22:35.701 : en:Chapter 19
01:25:49.061 : en:Chapter 20
01:30:38.350 : en:Chapter 21
01:32:48.188 : en:Chapter 22
01:37:59.624 : en:Chapter 23
01:45:01.045 : en:Chapter 24