General

Unique ID : 215739649226801111345754933706383701816 (0xA24DF1EFB2A8AAAB31FE9590B41C3738)
Complete name : /movies/d/Dark_Phoenix_2019_10bit_1080p_x265_BluRay_Tigole_30NAMA.mkv
Format : Matroska
Format version : Version 4
File size : 4.12 GiB
Duration : 1 h 53 min
Overall bit rate : 5 172 kb/s
Movie name : X-Men: Dark Phoenix
Encoded date : UTC 2019-09-02 09:12:37
Writing application : mkvmerge v32.0.0 ('Astral Progressions') 64-bit
Writing library : libebml v1.3.7 + libmatroska v1.5.0

Video

ID : 1
Format : HEVC
Format/Info : High Efficiency Video Coding
Format profile : Main 10@L4@Main
Codec ID : V_MPEGH/ISO/HEVC
Duration : 1 h 53 min
Bit rate : 4 408 kb/s
Width : 1 920 pixels
Height : 804 pixels
Display aspect ratio : 2.40:1
Frame rate mode : Constant
Frame rate : 23.976 (24000/1001) FPS
Color space : YUV
Chroma subsampling : 4:2:0
Bit depth : 10 bits
Bits/(Pixel*Frame) : 0.119
Stream size : 3.51 GiB (85%)
Writing library : x265 3.0_Au+18-768ab38fd5fd:[Windows][GCC 8.3.0][64 bit] 10bit
Encoding settings : cpuid=1111039 / frame-threads=3 / numa-pools=8 / wpp / no-pmode / no-pme / no-psnr / no-ssim / log-level=2 / input-csp=1 / input-res=1920x804 / interlace=0 / total-frames=163910 / level-idc=0 / high-tier=1 / uhd-bd=0 / ref=4 / no-allow-non-conformance / no-repeat-headers / annexb / no-aud / no-hrd / info / hash=0 / no-temporal-layers / open-gop / min-keyint=23 / keyint=250 / gop-lookahead=0 / bframes=8 / b-adapt=2 / b-pyramid / bframe-bias=0 / rc-lookahead=25 / lookahead-slices=4 / scenecut=40 / radl=0 / no-splice / no-intra-refresh / ctu=64 / min-cu-size=8 / rect / no-amp / max-tu-size=32 / tu-inter-depth=1 / tu-intra-depth=1 / limit-tu=0 / rdoq-level=2 / dynamic-rd=0.00 / no-ssim-rd / signhide / no-tskip / nr-intra=0 / nr-inter=0 / no-constrained-intra / strong-intra-smoothing / max-merge=3 / limit-refs=3 / limit-modes / me=3 / subme=3 / merange=57 / temporal-mvp / weightp / no-weightb / no-analyze-src-pics / deblock=0:0 / no-sao / no-sao-non-deblock / rd=4 / no-early-skip / rskip / no-fast-intra / no-tskip-fast / no-cu-lossless / no-b-intra / no-splitrd-skip / rdpenalty=0 / psy-rd=2.00 / psy-rdoq=1.00 / no-rd-refine / no-lossless / cbqpoffs=0 / crqpoffs=0 / rc=crf / crf=18.0 / qcomp=0.60 / qpstep=4 / stats-write=0 / stats-read=0 / ipratio=1.40 / pbratio=1.30 / aq-mode=3 / aq-strength=1.00 / cutree / zone-count=0 / no-strict-cbr / qg-size=32 / no-rc-grain / qpmax=69 / qpmin=0 / no-const-vbv / sar=0 / overscan=0 / videoformat=5 / range=0 / colorprim=2 / transfer=2 / colormatrix=2 / chromaloc=0 / display-window=0 / max-cll=0,0 / min-luma=0 / max-luma=1023 / log2-max-poc-lsb=8 / vui-timing-info / vui-hrd-info / slices=1 / no-opt-qp-pps / no-opt-ref-list-length-pps / no-multi-pass-opt-rps / scenecut-bias=0.05 / no-opt-cu-delta-qp / aq-motion / no-hdr / no-hdr-opt / no-dhdr10-opt / no-idr-recovery-sei / analysis-reuse-level=5 / scale-factor=0 / refine-intra=0 / refine-inter=0 / refine-mv=0 / refine-ctu-distortion=0 / no-limit-sao / ctu-info=0 / no-lowpass-dct / refine-analysis-type=0 / copy-pic=1 / max-ausize-factor=1.0 / no-dynamic-refine / no-single-sei / no-hevc-aq / no-svt / qp-adaptation-range=1.00
Default : Yes
Forced : No

Audio #1

ID : 2
Format : AAC LC
Format/Info : Advanced Audio Codec Low Complexity
Codec ID : A_AAC-2
Duration : 1 h 53 min
Bit rate : 576 kb/s
Channel(s) : 8 channels
Channel layout : C L R Ls Rs Rls Rb LFE
Sampling rate : 48.0 kHz
Frame rate : 46.875 FPS (1024 SPF)
Compression mode : Lossy
Delay relative to video : 20 ms
Stream size : 470 MiB (11%)
Language : English
Default : Yes
Forced : No

Audio #2

ID : 3
Format : AAC LC SBR
Format/Info : Advanced Audio Codec Low Complexity with Spectral Band Replication
Commercial name : HE-AAC
Format settings : Explicit
Codec ID : A_AAC-2
Duration : 1 h 53 min
Bit rate : 66.2 kb/s
Channel(s) : 2 channels
Channel layout : L R
Sampling rate : 48.0 kHz
Frame rate : 23.438 FPS (2048 SPF)
Compression mode : Lossy
Delay relative to video : 40 ms
Stream size : 53.6 MiB (1%)
Title : Commentary
Language : English
Default : No
Forced : No

Text #1

ID : 4
Format : VobSub
Muxing mode : zlib
Codec ID : S_VOBSUB
Codec ID/Info : Picture based subtitle format used on DVDs
Duration : 1 h 53 min
Bit rate : 7 406 b/s
Count of elements : 1415
Stream size : 6.02 MiB (0%)
Language : English
Default : No
Forced : No

Text #2

ID : 5
Format : VobSub
Muxing mode : zlib
Codec ID : S_VOBSUB
Codec ID/Info : Picture based subtitle format used on DVDs
Duration : 31 min 20 s
Bit rate : 86 b/s
Count of elements : 4
Stream size : 19.8 KiB (0%)
Title : Forced
Language : English
Default : No
Forced : Yes

Text #3

ID : 6
Format : VobSub
Muxing mode : zlib
Codec ID : S_VOBSUB
Codec ID/Info : Picture based subtitle format used on DVDs
Duration : 1 h 53 min
Bit rate : 20.5 kb/s
Count of elements : 2183
Stream size : 16.6 MiB (0%)
Title : Commentary
Language : English
Default : No
Forced : No

Text #4

ID : 7
Format : VobSub
Muxing mode : zlib
Codec ID : S_VOBSUB
Codec ID/Info : Picture based subtitle format used on DVDs
Duration : 1 h 52 min
Bit rate : 5 174 b/s
Count of elements : 798
Stream size : 4.18 MiB (0%)
Language : Danish
Default : No
Forced : No

Text #5

ID : 8
Format : VobSub
Muxing mode : zlib
Codec ID : S_VOBSUB
Codec ID/Info : Picture based subtitle format used on DVDs
Duration : 1 h 53 min
Bit rate : 17.3 kb/s
Count of elements : 2176
Stream size : 14.0 MiB (0%)
Title : Commentary
Language : Danish
Default : No
Forced : No

Text #6

ID : 9
Format : VobSub
Muxing mode : zlib
Codec ID : S_VOBSUB
Codec ID/Info : Picture based subtitle format used on DVDs
Duration : 1 h 52 min
Bit rate : 5 800 b/s
Count of elements : 1099
Stream size : 4.69 MiB (0%)
Language : Estonian
Default : No
Forced : No

Text #7

ID : 10
Format : VobSub
Muxing mode : zlib
Codec ID : S_VOBSUB
Codec ID/Info : Picture based subtitle format used on DVDs
Duration : 1 h 52 min
Bit rate : 5 337 b/s
Count of elements : 1099
Stream size : 4.31 MiB (0%)
Language : Finnish
Default : No
Forced : No

Text #8

ID : 11
Format : VobSub
Muxing mode : zlib
Codec ID : S_VOBSUB
Codec ID/Info : Picture based subtitle format used on DVDs
Duration : 1 h 53 min
Bit rate : 16.6 kb/s
Count of elements : 2173
Stream size : 13.5 MiB (0%)
Title : Commentary
Language : Finnish
Default : No
Forced : No

Text #9

ID : 12
Format : VobSub
Muxing mode : zlib
Codec ID : S_VOBSUB
Codec ID/Info : Picture based subtitle format used on DVDs
Duration : 1 h 52 min
Bit rate : 5 479 b/s
Count of elements : 1100
Stream size : 4.43 MiB (0%)
Language : Hindi
Default : No
Forced : No

Text #10

ID : 13
Format : VobSub
Muxing mode : zlib
Codec ID : S_VOBSUB
Codec ID/Info : Picture based subtitle format used on DVDs
Duration : 1 h 52 min
Bit rate : 5 699 b/s
Count of elements : 1102
Stream size : 4.60 MiB (0%)
Language : Latvian
Default : No
Forced : No

Text #11

ID : 14
Format : VobSub
Muxing mode : zlib
Codec ID : S_VOBSUB
Codec ID/Info : Picture based subtitle format used on DVDs
Duration : 1 h 52 min
Bit rate : 5 375 b/s
Count of elements : 1100
Stream size : 4.34 MiB (0%)
Language : Lithuanian
Default : No
Forced : No

Text #12

ID : 15
Format : VobSub
Muxing mode : zlib
Codec ID : S_VOBSUB
Codec ID/Info : Picture based subtitle format used on DVDs
Duration : 1 h 52 min
Bit rate : 5 448 b/s
Count of elements : 1101
Stream size : 4.40 MiB (0%)
Language : Norwegian Bokmal
Default : No
Forced : No

Text #13

ID : 16
Format : VobSub
Muxing mode : zlib
Codec ID : S_VOBSUB
Codec ID/Info : Picture based subtitle format used on DVDs
Duration : 1 h 53 min
Bit rate : 17.6 kb/s
Count of elements : 2176
Stream size : 14.3 MiB (0%)
Title : Commentary
Language : Norwegian Bokmal
Default : No
Forced : No

Text #14

ID : 17
Format : VobSub
Muxing mode : zlib
Codec ID : S_VOBSUB
Codec ID/Info : Picture based subtitle format used on DVDs
Duration : 1 h 52 min
Bit rate : 5 770 b/s
Count of elements : 1100
Stream size : 4.66 MiB (0%)
Language : Russian
Default : No
Forced : No

Text #15

ID : 18
Format : VobSub
Muxing mode : zlib
Codec ID : S_VOBSUB
Codec ID/Info : Picture based subtitle format used on DVDs
Duration : 1 h 53 min
Bit rate : 17.0 kb/s
Count of elements : 2169
Stream size : 13.8 MiB (0%)
Title : Commentary
Language : Russian
Default : No
Forced : No

Text #16

ID : 19
Format : VobSub
Muxing mode : zlib
Codec ID : S_VOBSUB
Codec ID/Info : Picture based subtitle format used on DVDs
Duration : 1 h 52 min
Bit rate : 5 561 b/s
Count of elements : 1101
Stream size : 4.49 MiB (0%)
Language : Swedish
Default : No
Forced : No

Text #17

ID : 20
Format : VobSub
Muxing mode : zlib
Codec ID : S_VOBSUB
Codec ID/Info : Picture based subtitle format used on DVDs
Duration : 1 h 53 min
Bit rate : 20.6 kb/s
Count of elements : 2176
Stream size : 16.7 MiB (0%)
Title : Commentary
Language : Swedish
Default : No
Forced : No

Text #18

ID : 21
Format : VobSub
Muxing mode : zlib
Codec ID : S_VOBSUB
Codec ID/Info : Picture based subtitle format used on DVDs
Duration : 1 h 52 min
Bit rate : 7 132 b/s
Count of elements : 1099
Stream size : 5.76 MiB (0%)
Language : Tamil
Default : No
Forced : No

Text #19

ID : 22
Format : VobSub
Muxing mode : zlib
Codec ID : S_VOBSUB
Codec ID/Info : Picture based subtitle format used on DVDs
Duration : 1 h 52 min
Bit rate : 6 026 b/s
Count of elements : 1099
Stream size : 4.87 MiB (0%)
Language : Telugu
Default : No
Forced : No

Text #20

ID : 23
Format : VobSub
Muxing mode : zlib
Codec ID : S_VOBSUB
Codec ID/Info : Picture based subtitle format used on DVDs
Duration : 1 h 52 min
Bit rate : 5 864 b/s
Count of elements : 1103
Stream size : 4.74 MiB (0%)
Language : Ukrainian
Default : No
Forced : No

Menu

00:00:00.000 : en:Chapter 01
00:03:28.875 : en:Chapter 02
00:07:34.620 : en:Chapter 03
00:11:42.201 : en:Chapter 04
00:15:44.109 : en:Chapter 05
00:18:37.407 : en:Chapter 06
00:25:24.481 : en:Chapter 07
00:31:40.356 : en:Chapter 08
00:34:19.307 : en:Chapter 09
00:40:07.446 : en:Chapter 10
00:44:36.090 : en:Chapter 11
00:49:07.778 : en:Chapter 12
00:55:38.168 : en:Chapter 13
00:58:57.408 : en:Chapter 14
01:02:57.190 : en:Chapter 15
01:10:40.110 : en:Chapter 16
01:13:42.418 : en:Chapter 17
01:19:33.477 : en:Chapter 18
01:22:35.700 : en:Chapter 19
01:25:49.060 : en:Chapter 20
01:30:38.349 : en:Chapter 21
01:32:48.187 : en:Chapter 22
01:37:59.623 : en:Chapter 23
01:45:01.044 : en:Chapter 24