General

Unique ID : 337955537153744782848667740786125606214 (0xFE3FDE6F6ABA1CCC2F7499FE5F0E8D46)
Complete name : /movies/d/Dark_Phoenix_2019_10bit_HDR_2160p_x265_BluRay_UHD_TERMiNAL_30NAMA.mkv
Format : Matroska
Format version : Version 4
File size : 11.3 GiB
Duration : 1 h 53 min
Overall bit rate mode : Variable
Overall bit rate : 14.2 Mb/s
Encoded date : UTC 2019-09-08 04:37:34
Writing application : mkvmerge v37.0.0 ('Leave It') 64-bit
Writing library : libebml v1.3.9 + libmatroska v1.5.2

Video

ID : 1
Format : HEVC
Format/Info : High Efficiency Video Coding
Commercial name : HDR10
Format profile : Main 10@L5.1@High
Codec ID : V_MPEGH/ISO/HEVC
Duration : 1 h 53 min
Bit rate : 8 148 kb/s
Width : 3 840 pixels
Height : 1 606 pixels
Display aspect ratio : 2.40:1
Frame rate mode : Constant
Frame rate : 23.976 (24000/1001) FPS
Color space : YUV
Chroma subsampling : 4:2:0 (Type 2)
Bit depth : 10 bits
Bits/(Pixel*Frame) : 0.055
Stream size : 6.48 GiB (57%)
Writing library : x265 3.1+11-de920e0a3183:[Windows][GCC 6.3.0][64 bit] 10bit
Encoding settings : cpuid=1111039 / frame-threads=4 / numa-pools=20 / wpp / no-pmode / no-pme / no-psnr / no-ssim / log-level=2 / input-csp=1 / input-res=3840x1606 / interlace=0 / total-frames=163902 / level-idc=51 / high-tier=1 / uhd-bd=0 / ref=4 / no-allow-non-conformance / repeat-headers / annexb / aud / hrd / info / hash=0 / no-temporal-layers / no-open-gop / min-keyint=1 / keyint=24 / gop-lookahead=0 / bframes=4 / b-adapt=2 / b-pyramid / bframe-bias=0 / rc-lookahead=25 / lookahead-slices=4 / scenecut=40 / radl=0 / no-splice / no-intra-refresh / ctu=64 / min-cu-size=8 / rect / no-amp / max-tu-size=32 / tu-inter-depth=1 / tu-intra-depth=1 / limit-tu=0 / rdoq-level=2 / dynamic-rd=0.00 / no-ssim-rd / signhide / no-tskip / nr-intra=0 / nr-inter=0 / no-constrained-intra / no-strong-intra-smoothing / max-merge=3 / limit-refs=3 / limit-modes / me=3 / subme=3 / merange=57 / temporal-mvp / no-hme / weightp / no-weightb / no-analyze-src-pics / deblock=-3:-3 / no-sao / no-sao-non-deblock / rd=4 / no-early-skip / rskip / no-fast-intra / no-tskip-fast / no-cu-lossless / no-b-intra / no-splitrd-skip / rdpenalty=0 / psy-rd=2.00 / psy-rdoq=1.00 / no-rd-refine / no-lossless / cbqpoffs=0 / crqpoffs=0 / rc=crf / crf=17.0 / qcomp=0.60 / qpstep=4 / stats-write=0 / stats-read=0 / vbv-maxrate=160000 / vbv-bufsize=160000 / vbv-init=0.9 / crf-max=0.0 / crf-min=0.0 / ipratio=1.40 / pbratio=1.30 / aq-mode=2 / aq-strength=1.00 / cutree / zone-count=0 / no-strict-cbr / qg-size=32 / no-rc-grain / qpmax=69 / qpmin=0 / no-const-vbv / sar=1 / overscan=0 / videoformat=5 / range=0 / colorprim=9 / transfer=16 / colormatrix=9 / chromaloc=1 / chromaloc-top=2 / chromaloc-bottom=2 / display-window=0 / master-display=G(13250,34500)B(7500,3000)R(34000,16000)WP(15635,16450)L(10000000,50)cll=0,0 / min-luma=0 / max-luma=1023 / log2-max-poc-lsb=8 / vui-timing-info / vui-hrd-info / slices=1 / no-opt-qp-pps / no-opt-ref-list-length-pps / no-multi-pass-opt-rps / scenecut-bias=0.05 / no-opt-cu-delta-qp / no-aq-motion / hdr / hdr-opt / no-dhdr10-opt / no-idr-recovery-sei / analysis-reuse-level=5 / scale-factor=0 / refine-intra=0 / refine-inter=0 / refine-mv=0 / refine-ctu-distortion=0 / no-limit-sao / ctu-info=0 / no-lowpass-dct / refine-analysis-type=0 / copy-pic=1 / max-ausize-factor=1.0 / no-dynamic-refine / no-single-sei / no-hevc-aq / no-svt / no-field / qp-adaptation-range=1.00
Default : Yes
Forced : No
Color range : Limited
Color primaries : BT.2020
Transfer characteristics : PQ
Matrix coefficients : BT.2020 non-constant
Mastering display color primaries : Display P3
Mastering display luminance : min: 0.0050 cd/m2, max: 1000 cd/m2

Audio #1

ID : 2
Format : MLP FBA 16-ch
Format/Info : Meridian Lossless Packing FBA with 16-channel presentation
Commercial name : Dolby TrueHD with Dolby Atmos
Codec ID : A_TRUEHD
Duration : 1 h 53 min
Bit rate mode : Variable
Bit rate : 4 775 kb/s
Maximum bit rate : 7 464 kb/s
Channel(s) : 8 channels
Channel layout : L R C LFE Ls Rs Lb Rb
Sampling rate : 48.0 kHz
Frame rate : 1 200.000 FPS (40 SPF)
Compression mode : Lossless
Stream size : 3.80 GiB (34%)
Language : English
Default : Yes
Forced : No
Number of dynamic objects : 13
Bed channel count : 1 channel
Bed channel configuration : LFE

Audio #2

ID : 3
Format : AC-3
Format/Info : Audio Coding 3
Commercial name : Dolby Digital
Codec ID : A_AC3
Duration : 1 h 53 min
Bit rate mode : Constant
Bit rate : 640 kb/s
Channel(s) : 6 channels
Channel layout : L R C LFE Ls Rs
Sampling rate : 48.0 kHz
Frame rate : 31.250 FPS (1536 SPF)
Bit depth : 16 bits
Compression mode : Lossy
Stream size : 522 MiB (4%)
Language : English
Service kind : Complete Main
Default : No
Forced : No

Audio #3

ID : 4
Format : AC-3
Format/Info : Audio Coding 3
Commercial name : Dolby Digital
Codec ID : A_AC3
Duration : 1 h 53 min
Bit rate mode : Constant
Bit rate : 224 kb/s
Channel(s) : 2 channels
Channel layout : L R
Sampling rate : 48.0 kHz
Frame rate : 31.250 FPS (1536 SPF)
Bit depth : 16 bits
Compression mode : Lossy
Stream size : 183 MiB (2%)
Title : Commentary
Language : English
Service kind : Complete Main
Default : No
Forced : No

Text #1

ID : 5
Format : UTF-8
Codec ID : S_TEXT/UTF8
Codec ID/Info : UTF-8 Plain Text
Duration : 31 min 20 s
Bit rate : 0 b/s
Count of elements : 4
Stream size : 169 Bytes (0%)
Title : Forced
Language : English
Default : Yes
Forced : Yes

Text #2

ID : 6
Format : PGS
Muxing mode : zlib
Codec ID : S_HDMV/PGS
Codec ID/Info : Picture based subtitle format used on BDs/HD-DVDs
Duration : 1 h 53 min
Bit rate : 28.1 kb/s
Count of elements : 2830
Stream size : 22.9 MiB (0%)
Title : English SDH
Language : English
Default : No
Forced : No

Text #3

ID : 7
Format : PGS
Muxing mode : zlib
Codec ID : S_HDMV/PGS
Codec ID/Info : Picture based subtitle format used on BDs/HD-DVDs
Duration : 1 h 5 min
Bit rate : 135 b/s
Count of elements : 11
Stream size : 64.8 KiB (0%)
Title : Forced
Language : English
Default : No
Forced : No

Text #4

ID : 8
Format : PGS
Muxing mode : zlib
Codec ID : S_HDMV/PGS
Codec ID/Info : Picture based subtitle format used on BDs/HD-DVDs
Duration : 1 h 52 min
Bit rate : 16.0 kb/s
Count of elements : 2183
Stream size : 12.9 MiB (0%)
Language : Japanese
Default : No
Forced : No

Text #5

ID : 9
Format : PGS
Muxing mode : zlib
Codec ID : S_HDMV/PGS
Codec ID/Info : Picture based subtitle format used on BDs/HD-DVDs
Duration : 1 h 52 min
Bit rate : 21.3 kb/s
Count of elements : 2116
Stream size : 17.2 MiB (0%)
Language : Spanish
Default : No
Forced : No

Text #6

ID : 10
Format : PGS
Muxing mode : zlib
Codec ID : S_HDMV/PGS
Codec ID/Info : Picture based subtitle format used on BDs/HD-DVDs
Duration : 1 h 52 min
Bit rate : 18.7 kb/s
Count of elements : 2016
Stream size : 15.1 MiB (0%)
Language : French
Default : No
Forced : No

Text #7

ID : 11
Format : PGS
Muxing mode : zlib
Codec ID : S_HDMV/PGS
Codec ID/Info : Picture based subtitle format used on BDs/HD-DVDs
Duration : 1 h 52 min
Bit rate : 21.6 kb/s
Count of elements : 2158
Stream size : 17.4 MiB (0%)
Language : Spanish
Default : No
Forced : No

Text #8

ID : 12
Format : PGS
Muxing mode : zlib
Codec ID : S_HDMV/PGS
Codec ID/Info : Picture based subtitle format used on BDs/HD-DVDs
Duration : 1 h 52 min
Bit rate : 19.4 kb/s
Count of elements : 1592
Stream size : 15.6 MiB (0%)
Language : Danish
Default : No
Forced : No

Text #9

ID : 13
Format : PGS
Muxing mode : zlib
Codec ID : S_HDMV/PGS
Codec ID/Info : Picture based subtitle format used on BDs/HD-DVDs
Duration : 1 h 52 min
Bit rate : 19.4 kb/s
Count of elements : 1514
Stream size : 15.7 MiB (0%)
Language : Dutch
Default : No
Forced : No

Text #10

ID : 14
Format : PGS
Muxing mode : zlib
Codec ID : S_HDMV/PGS
Codec ID/Info : Picture based subtitle format used on BDs/HD-DVDs
Duration : 1 h 52 min
Bit rate : 20.7 kb/s
Count of elements : 2198
Stream size : 16.7 MiB (0%)
Language : Finnish
Default : No
Forced : No

Text #11

ID : 15
Format : PGS
Muxing mode : zlib
Codec ID : S_HDMV/PGS
Codec ID/Info : Picture based subtitle format used on BDs/HD-DVDs
Duration : 1 h 52 min
Bit rate : 21.6 kb/s
Count of elements : 2054
Stream size : 17.4 MiB (0%)
Language : German
Default : No
Forced : No

Text #12

ID : 16
Format : PGS
Muxing mode : zlib
Codec ID : S_HDMV/PGS
Codec ID/Info : Picture based subtitle format used on BDs/HD-DVDs
Duration : 1 h 52 min
Bit rate : 20.9 kb/s
Count of elements : 2198
Stream size : 16.9 MiB (0%)
Language : Italian
Default : No
Forced : No

Text #13

ID : 17
Format : PGS
Muxing mode : zlib
Codec ID : S_HDMV/PGS
Codec ID/Info : Picture based subtitle format used on BDs/HD-DVDs
Duration : 1 h 52 min
Bit rate : 20.8 kb/s
Count of elements : 2202
Stream size : 16.8 MiB (0%)
Language : Norwegian
Default : No
Forced : No

Text #14

ID : 18
Format : PGS
Muxing mode : zlib
Codec ID : S_HDMV/PGS
Codec ID/Info : Picture based subtitle format used on BDs/HD-DVDs
Duration : 1 h 52 min
Bit rate : 21.7 kb/s
Count of elements : 2200
Stream size : 17.5 MiB (0%)
Language : Russian
Default : No
Forced : No

Text #15

ID : 19
Format : PGS
Muxing mode : zlib
Codec ID : S_HDMV/PGS
Codec ID/Info : Picture based subtitle format used on BDs/HD-DVDs
Duration : 1 h 52 min
Bit rate : 21.4 kb/s
Count of elements : 2202
Stream size : 17.3 MiB (0%)
Language : Swedish
Default : No
Forced : No

Text #16

ID : 20
Format : PGS
Muxing mode : zlib
Codec ID : S_HDMV/PGS
Codec ID/Info : Picture based subtitle format used on BDs/HD-DVDs
Duration : 1 h 52 min
Bit rate : 14.9 kb/s
Count of elements : 2212
Stream size : 12.0 MiB (0%)
Language : Chinese
Default : No
Forced : No

Text #17

ID : 21
Format : PGS
Muxing mode : zlib
Codec ID : S_HDMV/PGS
Codec ID/Info : Picture based subtitle format used on BDs/HD-DVDs
Duration : 1 h 52 min
Bit rate : 19.2 kb/s
Count of elements : 2202
Stream size : 15.5 MiB (0%)
Language : Czech
Default : No
Forced : No

Text #18

ID : 22
Format : PGS
Muxing mode : zlib
Codec ID : S_HDMV/PGS
Codec ID/Info : Picture based subtitle format used on BDs/HD-DVDs
Duration : 1 h 52 min
Bit rate : 21.8 kb/s
Count of elements : 2042
Stream size : 17.6 MiB (0%)
Language : Hungarian
Default : No
Forced : No

Text #19

ID : 23
Format : PGS
Muxing mode : zlib
Codec ID : S_HDMV/PGS
Codec ID/Info : Picture based subtitle format used on BDs/HD-DVDs
Duration : 1 h 52 min
Bit rate : 16.5 kb/s
Count of elements : 2210
Stream size : 13.3 MiB (0%)
Language : Korean
Default : No
Forced : No

Text #20

ID : 24
Format : PGS
Muxing mode : zlib
Codec ID : S_HDMV/PGS
Codec ID/Info : Picture based subtitle format used on BDs/HD-DVDs
Duration : 1 h 47 min
Bit rate : 22.7 kb/s
Count of elements : 2460
Stream size : 17.4 MiB (0%)
Language : Chinese
Default : No
Forced : No

Text #21

ID : 25
Format : PGS
Muxing mode : zlib
Codec ID : S_HDMV/PGS
Codec ID/Info : Picture based subtitle format used on BDs/HD-DVDs
Duration : 1 h 52 min
Bit rate : 17.9 kb/s
Count of elements : 2202
Stream size : 14.4 MiB (0%)
Language : Chinese
Default : No
Forced : No

Text #22

ID : 26
Format : PGS
Muxing mode : zlib
Codec ID : S_HDMV/PGS
Codec ID/Info : Picture based subtitle format used on BDs/HD-DVDs
Duration : 1 h 52 min
Bit rate : 19.4 kb/s
Count of elements : 2146
Stream size : 15.7 MiB (0%)
Language : Polish
Default : No
Forced : No

Text #23

ID : 27
Format : PGS
Muxing mode : zlib
Codec ID : S_HDMV/PGS
Codec ID/Info : Picture based subtitle format used on BDs/HD-DVDs
Duration : 1 h 52 min
Bit rate : 23.1 kb/s
Count of elements : 2210
Stream size : 18.6 MiB (0%)
Language : Portuguese
Default : No
Forced : No

Text #24

ID : 28
Format : PGS
Muxing mode : zlib
Codec ID : S_HDMV/PGS
Codec ID/Info : Picture based subtitle format used on BDs/HD-DVDs
Duration : 1 h 52 min
Bit rate : 18.9 kb/s
Count of elements : 2204
Stream size : 15.3 MiB (0%)
Language : Thai
Default : No
Forced : No

Text #25

ID : 29
Format : PGS
Muxing mode : zlib
Codec ID : S_HDMV/PGS
Codec ID/Info : Picture based subtitle format used on BDs/HD-DVDs
Duration : 1 h 40 min
Bit rate : 172 b/s
Count of elements : 21
Stream size : 127 KiB (0%)
Language : Japanese
Default : No
Forced : No

Text #26

ID : 30
Format : PGS
Muxing mode : zlib
Codec ID : S_HDMV/PGS
Codec ID/Info : Picture based subtitle format used on BDs/HD-DVDs
Duration : 1 h 53 min
Bit rate : 35.9 kb/s
Count of elements : 2542
Stream size : 29.2 MiB (0%)
Title : Commentary
Language : Japanese
Default : No
Forced : No

Text #27

ID : 31
Format : PGS
Muxing mode : zlib
Codec ID : S_HDMV/PGS
Codec ID/Info : Picture based subtitle format used on BDs/HD-DVDs
Duration : 1 h 53 min
Bit rate : 75.7 kb/s
Count of elements : 4362
Stream size : 61.5 MiB (1%)
Title : Commentary
Language : English
Default : No
Forced : No

Text #28

ID : 32
Format : PGS
Muxing mode : zlib
Codec ID : S_HDMV/PGS
Codec ID/Info : Picture based subtitle format used on BDs/HD-DVDs
Duration : 1 h 53 min
Bit rate : 70.8 kb/s
Count of elements : 4344
Stream size : 57.6 MiB (0%)
Title : Commentary
Language : Spanish
Default : No
Forced : No

Text #29

ID : 33
Format : PGS
Muxing mode : zlib
Codec ID : S_HDMV/PGS
Codec ID/Info : Picture based subtitle format used on BDs/HD-DVDs
Duration : 1 h 53 min
Bit rate : 63.8 kb/s
Count of elements : 4344
Stream size : 51.9 MiB (0%)
Title : Commentary
Language : French
Default : No
Forced : No

Text #30

ID : 34
Format : PGS
Muxing mode : zlib
Codec ID : S_HDMV/PGS
Codec ID/Info : Picture based subtitle format used on BDs/HD-DVDs
Duration : 1 h 53 min
Bit rate : 68.3 kb/s
Count of elements : 4344
Stream size : 55.6 MiB (0%)
Title : Commentary
Language : Spanish
Default : No
Forced : No

Text #31

ID : 35
Format : PGS
Muxing mode : zlib
Codec ID : S_HDMV/PGS
Codec ID/Info : Picture based subtitle format used on BDs/HD-DVDs
Duration : 1 h 53 min
Bit rate : 68.9 kb/s
Count of elements : 4344
Stream size : 56.0 MiB (0%)
Title : Commentary
Language : German
Default : No
Forced : No

Text #32

ID : 36
Format : PGS
Muxing mode : zlib
Codec ID : S_HDMV/PGS
Codec ID/Info : Picture based subtitle format used on BDs/HD-DVDs
Duration : 1 h 53 min
Bit rate : 62.1 kb/s
Count of elements : 4344
Stream size : 50.5 MiB (0%)
Title : Commentary
Language : Italian
Default : No
Forced : No

Text #33

ID : 37
Format : PGS
Muxing mode : zlib
Codec ID : S_HDMV/PGS
Codec ID/Info : Picture based subtitle format used on BDs/HD-DVDs
Duration : 1 h 53 min
Bit rate : 48.6 kb/s
Count of elements : 4346
Stream size : 39.5 MiB (0%)
Title : Commentary
Language : Korean
Default : No
Forced : No

Menu

00:00:00.000 : :Chapter 01
00:03:28.542 : :Chapter 02
00:07:34.287 : :Chapter 03
00:11:41.868 : :Chapter 04
00:15:43.776 : :Chapter 05
00:18:37.074 : :Chapter 06
00:25:24.148 : :Chapter 07
00:31:40.023 : :Chapter 08
00:34:18.974 : :Chapter 09
00:40:07.113 : :Chapter 10
00:44:35.756 : :Chapter 11
00:49:07.444 : :Chapter 12
00:55:37.834 : :Chapter 13
00:58:57.075 : :Chapter 14
01:02:55.855 : :Chapter 15
01:10:39.777 : :Chapter 16
01:13:42.084 : :Chapter 17
01:19:33.143 : :Chapter 18
01:22:35.367 : :Chapter 19
01:25:48.727 : :Chapter 20
01:30:38.016 : :Chapter 21
01:32:47.854 : :Chapter 22
01:37:59.290 : :Chapter 23
01:45:00.711 : :Chapter 24