General

Unique ID : 140770079868693561479816623751876891165 (0x69E754CA21CC91DD8888ADA20B80D21D)
Complete name : /movies/d/Dora_and_the_Lost_City_of_Gold_2019_1080p_BluRay_REMUX_Dolby_Atmos_EPSiLON_30NAMA.mkv
Format : Matroska
Format version : Version 4
File size : 23.9 GiB
Duration : 1 h 42 min
Overall bit rate mode : Variable
Overall bit rate : 33.4 Mb/s
Movie name : Dora and the Lost City of Gold (2019)
Encoded date : UTC 2019-11-11 04:05:17
Writing application : mkvmerge v38.0.0 ('The Silent Type') 64-bit
Writing library : libebml v1.3.9 + libmatroska v1.5.2
IMDB : tt7547410
TMDB : movie/499701

Video

ID : 1
Format : AVC
Format/Info : Advanced Video Codec
Format profile : High@L4.1
Format settings : CABAC / 4 Ref Frames
Format settings, CABAC : Yes
Format settings, ReFrames : 4 frames
Codec ID : V_MPEG4/ISO/AVC
Duration : 1 h 42 min
Bit rate mode : Variable
Bit rate : 27.9 Mb/s
Maximum bit rate : 31.1 Mb/s
Width : 1 920 pixels
Height : 1 080 pixels
Display aspect ratio : 16:9
Frame rate mode : Constant
Frame rate : 23.976 (24000/1001) FPS
Color space : YUV
Chroma subsampling : 4:2:0
Bit depth : 8 bits
Scan type : Progressive
Bits/(Pixel*Frame) : 0.561
Stream size : 19.9 GiB (83%)
Title : MPEG-4 AVC Video / 27991 kbps / 1080p / 23.976 fps / 16:9 / High Profile 4.1
Language : English
Default : Yes
Forced : No

Audio #1

ID : 2
Format : MLP FBA 16-ch
Format/Info : Meridian Lossless Packing FBA with 16-channel presentation
Commercial name : Dolby TrueHD with Dolby Atmos
Codec ID : A_TRUEHD
Duration : 1 h 42 min
Bit rate mode : Variable
Bit rate : 4 404 kb/s
Maximum bit rate : 7 182 kb/s
Channel(s) : 8 channels
Channel layout : L R C LFE Ls Rs Lb Rb
Sampling rate : 48.0 kHz
Frame rate : 1 200.000 FPS (40 SPF)
Compression mode : Lossless
Stream size : 3.15 GiB (13%)
Title : Dolby TrueHD/Atmos Audio / 7.1 / 48 kHz / 4404 kbps / 24-bit
Language : English
Default : Yes
Forced : No
Number of dynamic objects : 11
Bed channel count : 1 channel
Bed channel configuration : LFE

Audio #2

ID : 3
Format : AC-3
Format/Info : Audio Coding 3
Commercial name : Dolby Digital
Codec ID : A_AC3
Duration : 1 h 42 min
Bit rate mode : Constant
Bit rate : 640 kb/s
Channel(s) : 6 channels
Channel layout : L R C LFE Ls Rs
Sampling rate : 48.0 kHz
Frame rate : 31.250 FPS (1536 SPF)
Bit depth : 16 bits
Compression mode : Lossy
Stream size : 469 MiB (2%)
Title : Compatibility Track / Dolby Digital Audio / 5.1-EX / 48 kHz / 640 kbps
Language : English
Service kind : Complete Main
Default : No
Forced : No

Text #1

ID : 4
Format : PGS
Codec ID : S_HDMV/PGS
Codec ID/Info : Picture based subtitle format used on BDs/HD-DVDs
Duration : 1 h 32 min
Bit rate : 416 b/s
Count of elements : 48
Stream size : 282 KiB (0%)
Title : Forced
Language : English
Default : Yes
Forced : Yes

Text #2

ID : 5
Format : PGS
Codec ID : S_HDMV/PGS
Codec ID/Info : Picture based subtitle format used on BDs/HD-DVDs
Duration : 1 h 37 min
Bit rate : 42.9 kb/s
Count of elements : 2800
Stream size : 29.8 MiB (0%)
Language : English
Default : No
Forced : No

Text #3

ID : 6
Format : PGS
Codec ID : S_HDMV/PGS
Codec ID/Info : Picture based subtitle format used on BDs/HD-DVDs
Duration : 1 h 41 min
Bit rate : 48.8 kb/s
Count of elements : 3430
Stream size : 35.4 MiB (0%)
Title : SDH
Language : English
Default : No
Forced : No

Text #4

ID : 7
Format : PGS
Codec ID : S_HDMV/PGS
Codec ID/Info : Picture based subtitle format used on BDs/HD-DVDs
Duration : 1 h 41 min
Bit rate : 33.7 kb/s
Count of elements : 2828
Stream size : 24.5 MiB (0%)
Title : ??????
Language : Chinese
Default : No
Forced : No

Text #5

ID : 8
Format : PGS
Codec ID : S_HDMV/PGS
Codec ID/Info : Picture based subtitle format used on BDs/HD-DVDs
Duration : 1 h 41 min
Bit rate : 32.3 kb/s
Count of elements : 2828
Stream size : 23.5 MiB (0%)
Title : ??????
Language : Chinese
Default : No
Forced : No

Text #6

ID : 9
Format : PGS
Codec ID : S_HDMV/PGS
Codec ID/Info : Picture based subtitle format used on BDs/HD-DVDs
Duration : 1 h 41 min
Bit rate : 43.3 kb/s
Count of elements : 2800
Stream size : 31.4 MiB (0%)
Title : Canadian
Language : French
Default : No
Forced : No

Text #7

ID : 10
Format : PGS
Codec ID : S_HDMV/PGS
Codec ID/Info : Picture based subtitle format used on BDs/HD-DVDs
Duration : 1 h 41 min
Bit rate : 34.8 kb/s
Count of elements : 2826
Stream size : 25.3 MiB (0%)
Language : Hindi
Default : No
Forced : No

Text #8

ID : 11
Format : PGS
Codec ID : S_HDMV/PGS
Codec ID/Info : Picture based subtitle format used on BDs/HD-DVDs
Duration : 1 h 37 min
Bit rate : 29.3 kb/s
Count of elements : 2828
Stream size : 20.4 MiB (0%)
Language : Japanese
Default : No
Forced : No

Text #9

ID : 12
Format : PGS
Codec ID : S_HDMV/PGS
Codec ID/Info : Picture based subtitle format used on BDs/HD-DVDs
Duration : 1 h 41 min
Bit rate : 32.5 kb/s
Count of elements : 2830
Stream size : 23.6 MiB (0%)
Language : Korean
Default : No
Forced : No

Text #10

ID : 13
Format : PGS
Codec ID : S_HDMV/PGS
Codec ID/Info : Picture based subtitle format used on BDs/HD-DVDs
Duration : 1 h 41 min
Bit rate : 45.5 kb/s
Count of elements : 2822
Stream size : 33.1 MiB (0%)
Language : Malay
Default : No
Forced : No

Text #11

ID : 14
Format : PGS
Codec ID : S_HDMV/PGS
Codec ID/Info : Picture based subtitle format used on BDs/HD-DVDs
Duration : 1 h 41 min
Bit rate : 38.6 kb/s
Count of elements : 2722
Stream size : 28.1 MiB (0%)
Title : Latin American
Language : Spanish
Default : No
Forced : No

Text #12

ID : 15
Format : PGS
Codec ID : S_HDMV/PGS
Codec ID/Info : Picture based subtitle format used on BDs/HD-DVDs
Duration : 1 h 41 min
Bit rate : 33.1 kb/s
Count of elements : 2828
Stream size : 24.0 MiB (0%)
Language : Thai
Default : No
Forced : No

Menu

00:00:00.000 : en:Chapter 1
00:04:52.417 : en:Chapter 2
00:09:49.088 : en:Chapter 3
00:15:35.643 : en:Chapter 4
00:20:26.767 : en:Chapter 5
00:25:47.838 : en:Chapter 6
00:35:15.780 : en:Chapter 7
00:42:53.738 : en:Chapter 8
00:47:13.664 : en:Chapter 9
00:52:57.883 : en:Chapter 10
00:55:41.463 : en:Chapter 11
01:01:02.659 : en:Chapter 12
01:06:11.301 : en:Chapter 13
01:10:23.136 : en:Chapter 14
01:13:52.136 : en:Chapter 15
01:18:26.327 : en:Chapter 16
01:22:39.496 : en:Chapter 17
01:32:57.322 : en:Chapter 18
01:38:30.238 : en:Chapter 19