General

Unique ID : 124383956003806768339079177442543475918 (0x5D937A820CD5BA1909CFF85610731CCE)
Complete name : /movies/d/Dora_and_the_Lost_City_of_Gold_2019_1080p_BluRay_SbR_30NAMA.mkv
Format : Matroska
Format version : Version 4
File size : 10.8 GiB
Duration : 1 h 42 min
Overall bit rate : 15.1 Mb/s
Encoded date : UTC 2019-11-14 16:59:17
Writing application : mkvmerge v40.0.0 ('Old Town Road + Pony') 64-bit
Writing library : libebml v1.3.9 + libmatroska v1.5.2
Cover : Yes
Attachments : cover.jpg

Video

ID : 1
Format : AVC
Format/Info : Advanced Video Codec
Format profile : High@L4.1
Format settings : CABAC / 4 Ref Frames
Format settings, CABAC : Yes
Format settings, ReFrames : 4 frames
Codec ID : V_MPEG4/ISO/AVC
Duration : 1 h 42 min
Bit rate : 13.5 Mb/s
Width : 1 920 pixels
Height : 1 080 pixels
Display aspect ratio : 16:9
Frame rate mode : Constant
Frame rate : 23.976 (24000/1001) FPS
Color space : YUV
Chroma subsampling : 4:2:0
Bit depth : 8 bits
Scan type : Progressive
Bits/(Pixel*Frame) : 0.272
Stream size : 9.66 GiB (90%)
Writing library : x264 core 152 r2851kMod ba24899
Encoding settings : cabac=1 / ref=4 / deblock=1:-3:-3 / analyse=0x3:0x133 / me=umh / subme=10 / psy=1 / fade_compensate=0.00 / psy_rd=1.03:0.00 / mixed_ref=1 / me_range=32 / chroma_me=1 / trellis=2 / 8x8dct=1 / cqm=0 / deadzone=21,11 / fast_pskip=0 / chroma_qp_offset=-2 / threads=12 / lookahead_threads=2 / sliced_threads=0 / nr=0 / decimate=1 / interlaced=0 / bluray_compat=0 / constrained_intra=0 / bframes=8 / b_pyramid=2 / b_adapt=2 / b_bias=0 / direct=3 / weightb=1 / open_gop=0 / weightp=2 / keyint=250 / keyint_min=23 / scenecut=40 / intra_refresh=0 / rc=2pass / mbtree=0 / bitrate=13500 / ratetol=1.0 / qcomp=0.60 / qpmin=0 / qpmax=69 / qpstep=4 / cplxblur=20.0 / qblur=0.5 / ip_ratio=1.30 / pb_ratio=1.20 / aq=3:0.70 / zones=27,1180,b=1.4/22090,22433,b=1.4/52797,54949,b=1.4/60342,61493,b=1.4/83010,85622,b=1.4/87831,88054,b=1.4/88878,95148,b=1.3/106271,119517,b=1.3
Language : English
Default : Yes
Forced : No
Color range : Limited
Matrix coefficients : BT.709

Audio

ID : 2
Format : E-AC-3
Format/Info : Enhanced AC-3
Commercial name : Dolby Digital Plus
Format profile : Blu-ray Disc
Codec ID : A_EAC3
Duration : 1 h 42 min
Bit rate mode : Constant
Bit rate : 1 536 kb/s
Channel(s) : 8 channels
Channel layout : L R C LFE Ls Rs Lb Rb
Sampling rate : 48.0 kHz
Frame rate : 31.250 FPS (1536 SPF)
Compression mode : Lossy
Stream size : 1.10 GiB (10%)
Language : English
Service kind : Complete Main
Default : Yes
Forced : No

Text #1

ID : 3
Format : UTF-8
Codec ID : S_TEXT/UTF8
Codec ID/Info : UTF-8 Plain Text
Duration : 1 h 32 min
Bit rate : 0 b/s
Count of elements : 24
Stream size : 550 Bytes (0%)
Title : Forced
Language : English
Default : Yes
Forced : Yes

Text #2

ID : 4
Format : UTF-8
Codec ID : S_TEXT/UTF8
Codec ID/Info : UTF-8 Plain Text
Duration : 1 h 37 min
Bit rate : 62 b/s
Count of elements : 1501
Stream size : 44.5 KiB (0%)
Language : English
Default : No
Forced : No

Text #3

ID : 5
Format : UTF-8
Codec ID : S_TEXT/UTF8
Codec ID/Info : UTF-8 Plain Text
Duration : 1 h 41 min
Bit rate : 67 b/s
Count of elements : 1715
Stream size : 50.1 KiB (0%)
Title : SDH
Language : English
Default : No
Forced : No

Text #4

ID : 6
Format : PGS
Muxing mode : zlib
Codec ID : S_HDMV/PGS
Codec ID/Info : Picture based subtitle format used on BDs/HD-DVDs
Duration : 1 h 41 min
Bit rate : 32.3 kb/s
Count of elements : 2828
Stream size : 23.5 MiB (0%)
Title : Cantonese
Language : Chinese
Default : No
Forced : No

Text #5

ID : 7
Format : PGS
Muxing mode : zlib
Codec ID : S_HDMV/PGS
Codec ID/Info : Picture based subtitle format used on BDs/HD-DVDs
Duration : 1 h 41 min
Bit rate : 32.3 kb/s
Count of elements : 2828
Stream size : 23.5 MiB (0%)
Title : Mandarin Traditional
Language : Chinese
Default : No
Forced : No

Text #6

ID : 8
Format : UTF-8
Codec ID : S_TEXT/UTF8
Codec ID/Info : UTF-8 Plain Text
Duration : 1 h 41 min
Bit rate : 64 b/s
Count of elements : 1400
Stream size : 47.7 KiB (0%)
Title : Can
Language : French
Default : No
Forced : No

Text #7

ID : 9
Format : UTF-8
Codec ID : S_TEXT/UTF8
Codec ID/Info : UTF-8 Plain Text
Duration : 1 h 41 min
Bit rate : 147 b/s
Count of elements : 1413
Stream size : 110 KiB (0%)
Language : Hindi
Default : No
Forced : No

Text #8

ID : 10
Format : UTF-8
Codec ID : S_TEXT/UTF8
Codec ID/Info : UTF-8 Plain Text
Duration : 1 h 37 min
Bit rate : 52 b/s
Count of elements : 1413
Stream size : 37.2 KiB (0%)
Language : Japanese
Default : No
Forced : No

Text #9

ID : 11
Format : UTF-8
Codec ID : S_TEXT/UTF8
Codec ID/Info : UTF-8 Plain Text
Duration : 1 h 37 min
Bit rate : 65 b/s
Count of elements : 1414
Stream size : 46.7 KiB (0%)
Language : Korean
Default : No
Forced : No

Text #10

ID : 12
Format : UTF-8
Codec ID : S_TEXT/UTF8
Codec ID/Info : UTF-8 Plain Text
Duration : 1 h 41 min
Bit rate : 57 b/s
Count of elements : 1411
Stream size : 42.6 KiB (0%)
Language : Malay
Default : No
Forced : No

Text #11

ID : 13
Format : UTF-8
Codec ID : S_TEXT/UTF8
Codec ID/Info : UTF-8 Plain Text
Duration : 1 h 37 min
Bit rate : 56 b/s
Count of elements : 1356
Stream size : 40.3 KiB (0%)
Title : L.A
Language : Spanish
Default : No
Forced : No

Text #12

ID : 14
Format : UTF-8
Codec ID : S_TEXT/UTF8
Codec ID/Info : UTF-8 Plain Text
Duration : 1 h 41 min
Bit rate : 128 b/s
Count of elements : 1414
Stream size : 95.5 KiB (0%)
Language : Thai
Default : No
Forced : No

Menu

00:00:00.000 : :Chapter 01
00:04:52.417 : :Chapter 02
00:09:49.088 : :Chapter 03
00:15:35.643 : :Chapter 04
00:20:26.767 : :Chapter 05
00:25:47.837 : :Chapter 06
00:35:15.780 : :Chapter 07
00:42:53.737 : :Chapter 08
00:47:13.664 : :Chapter 09
00:52:57.883 : :Chapter 10
00:55:41.463 : :Chapter 11
01:01:02.659 : :Chapter 12
01:06:11.300 : :Chapter 13
01:10:23.135 : :Chapter 14
01:13:52.136 : :Chapter 15
01:18:26.326 : :Chapter 16
01:22:39.496 : :Chapter 17
01:32:57.321 : :Chapter 18
01:38:30.237 : :Chapter 19