General

Unique ID : 253360076183383376164929085932286733593 (0xBE9B6030B7DCD1B4B5DC29EA8DD36D19)
Complete name : /movies/d/Dora_and_the_Lost_City_of_Gold_2019_10bit_1080p_x265_BluRay_AAC_7.1_Tigole_30NAMA.mkv
Format : Matroska
Format version : Version 4
File size : 4.77 GiB
Duration : 1 h 42 min
Overall bit rate : 6 666 kb/s
Movie name : Dora and the Lost City of Gold
Encoded date : UTC 2019-11-12 08:17:49
Writing application : mkvmerge v38.0.0 ('The Silent Type') 64-bit
Writing library : libebml v1.3.9 + libmatroska v1.5.2

Video

ID : 1
Format : HEVC
Format/Info : High Efficiency Video Coding
Format profile : Main 10@L4@Main
Codec ID : V_MPEGH/ISO/HEVC
Duration : 1 h 42 min
Bit rate : 6 001 kb/s
Width : 1 920 pixels
Height : 1 080 pixels
Display aspect ratio : 16:9
Frame rate mode : Constant
Frame rate : 23.976 (24000/1001) FPS
Color space : YUV
Chroma subsampling : 4:2:0
Bit depth : 10 bits
Bits/(Pixel*Frame) : 0.121
Stream size : 4.29 GiB (90%)
Writing library : x265 3.2+5-354901970679:[Windows][GCC 9.2.0][64 bit] 10bit
Encoding settings : cpuid=1111039 / frame-threads=3 / numa-pools=8 / wpp / no-pmode / no-pme / no-psnr / no-ssim / log-level=2 / input-csp=1 / input-res=1920x1080 / interlace=0 / total-frames=147384 / level-idc=0 / high-tier=1 / uhd-bd=0 / ref=4 / no-allow-non-conformance / no-repeat-headers / annexb / no-aud / no-hrd / info / hash=0 / no-temporal-layers / open-gop / min-keyint=23 / keyint=250 / gop-lookahead=0 / bframes=4 / b-adapt=2 / b-pyramid / bframe-bias=0 / rc-lookahead=25 / lookahead-slices=4 / scenecut=40 / radl=0 / no-splice / no-intra-refresh / ctu=64 / min-cu-size=8 / rect / no-amp / max-tu-size=32 / tu-inter-depth=1 / tu-intra-depth=1 / limit-tu=0 / rdoq-level=2 / dynamic-rd=0.00 / no-ssim-rd / signhide / no-tskip / nr-intra=0 / nr-inter=0 / no-constrained-intra / strong-intra-smoothing / max-merge=3 / limit-refs=3 / limit-modes / me=3 / subme=3 / merange=57 / temporal-mvp / no-frame-dup / no-hme / weightp / no-weightb / no-analyze-src-pics / deblock=0:0 / no-sao / no-sao-non-deblock / rd=4 / selective-sao=0 / no-early-skip / rskip / no-fast-intra / no-tskip-fast / no-cu-lossless / no-b-intra / no-splitrd-skip / rdpenalty=0 / psy-rd=2.00 / psy-rdoq=1.00 / no-rd-refine / no-lossless / cbqpoffs=0 / crqpoffs=0 / rc=abr / bitrate=6000 / qcomp=0.60 / qpstep=4 / stats-write=0 / stats-read=2 / cplxblur=20.0 / qblur=0.5 / ipratio=1.40 / pbratio=1.30 / aq-mode=3 / aq-strength=1.00 / cutree / zone-count=0 / no-strict-cbr / qg-size=32 / no-rc-grain / qpmax=69 / qpmin=0 / no-const-vbv / sar=0 / overscan=0 / videoformat=5 / range=0 / colorprim=2 / transfer=2 / colormatrix=2 / chromaloc=0 / display-window=0 / cll=0,0 / min-luma=0 / max-luma=1023 / log2-max-poc-lsb=8 / vui-timing-info / vui-hrd-info / slices=1 / no-opt-qp-pps / no-opt-ref-list-length-pps / multi-pass-opt-rps / scenecut-bias=0.05 / no-opt-cu-delta-qp / aq-motion / no-hdr / no-hdr-opt / no-dhdr10-opt / no-idr-recovery-sei / analysis-reuse-level=5 / scale-factor=0 / refine-intra=0 / refine-inter=0 / refine-mv=1 / refine-ctu-distortion=0 / no-limit-sao / ctu-info=0 / no-lowpass-dct / refine-analysis-type=0 / copy-pic=1 / max-ausize-factor=1.0 / no-dynamic-refine / no-single-sei / no-hevc-aq / no-svt / no-field / qp-adaptation-range=1.00
Default : Yes
Forced : No

Audio

ID : 2
Format : AAC LC
Format/Info : Advanced Audio Codec Low Complexity
Codec ID : A_AAC-2
Duration : 1 h 42 min
Bit rate : 610 kb/s
Channel(s) : 8 channels
Channel layout : C L R Ls Rs Rls Rb LFE
Sampling rate : 48.0 kHz
Frame rate : 46.875 FPS (1024 SPF)
Compression mode : Lossy
Delay relative to video : 20 ms
Stream size : 447 MiB (9%)
Language : English
Default : Yes
Forced : No

Text #1

ID : 3
Format : VobSub
Muxing mode : zlib
Codec ID : S_VOBSUB
Codec ID/Info : Picture based subtitle format used on DVDs
Duration : 1 h 41 min
Bit rate : 11.5 kb/s
Count of elements : 1715
Stream size : 8.37 MiB (0%)
Language : English
Default : No
Forced : No

Text #2

ID : 4
Format : VobSub
Muxing mode : zlib
Codec ID : S_VOBSUB
Codec ID/Info : Picture based subtitle format used on DVDs
Duration : 1 h 32 min
Bit rate : 112 b/s
Count of elements : 24
Stream size : 76.0 KiB (0%)
Title : Forced
Language : English
Default : No
Forced : Yes

Text #3

ID : 5
Format : VobSub
Muxing mode : zlib
Codec ID : S_VOBSUB
Codec ID/Info : Picture based subtitle format used on DVDs
Duration : 1 h 41 min
Bit rate : 7 645 b/s
Count of elements : 1414
Stream size : 5.55 MiB (0%)
Language : Chinese
Default : No
Forced : No

Text #4

ID : 6
Format : VobSub
Muxing mode : zlib
Codec ID : S_VOBSUB
Codec ID/Info : Picture based subtitle format used on DVDs
Duration : 1 h 41 min
Bit rate : 10.1 kb/s
Count of elements : 1400
Stream size : 7.33 MiB (0%)
Language : French
Default : No
Forced : No

Text #5

ID : 7
Format : VobSub
Muxing mode : zlib
Codec ID : S_VOBSUB
Codec ID/Info : Picture based subtitle format used on DVDs
Duration : 1 h 41 min
Bit rate : 8 374 b/s
Count of elements : 1413
Stream size : 6.08 MiB (0%)
Language : Hindi
Default : No
Forced : No

Text #6

ID : 8
Format : VobSub
Muxing mode : zlib
Codec ID : S_VOBSUB
Codec ID/Info : Picture based subtitle format used on DVDs
Duration : 1 h 37 min
Bit rate : 7 738 b/s
Count of elements : 1415
Stream size : 5.38 MiB (0%)
Language : Japanese
Default : No
Forced : No

Text #7

ID : 9
Format : VobSub
Muxing mode : zlib
Codec ID : S_VOBSUB
Codec ID/Info : Picture based subtitle format used on DVDs
Duration : 1 h 41 min
Bit rate : 7 845 b/s
Count of elements : 1415
Stream size : 5.70 MiB (0%)
Language : Korean
Default : No
Forced : No

Text #8

ID : 10
Format : VobSub
Muxing mode : zlib
Codec ID : S_VOBSUB
Codec ID/Info : Picture based subtitle format used on DVDs
Duration : 1 h 41 min
Bit rate : 10.7 kb/s
Count of elements : 1411
Stream size : 7.75 MiB (0%)
Language : Malay
Default : No
Forced : No

Text #9

ID : 11
Format : VobSub
Muxing mode : zlib
Codec ID : S_VOBSUB
Codec ID/Info : Picture based subtitle format used on DVDs
Duration : 1 h 41 min
Bit rate : 8 909 b/s
Count of elements : 1361
Stream size : 6.47 MiB (0%)
Language : Spanish
Default : No
Forced : No

Text #10

ID : 12
Format : VobSub
Muxing mode : zlib
Codec ID : S_VOBSUB
Codec ID/Info : Picture based subtitle format used on DVDs
Duration : 1 h 41 min
Bit rate : 7 597 b/s
Count of elements : 1414
Stream size : 5.52 MiB (0%)
Language : Thai
Default : No
Forced : No

Menu

00:00:00.000 : en:Chapter 01
00:04:52.417 : en:Chapter 02
00:09:49.088 : en:Chapter 03
00:15:35.643 : en:Chapter 04
00:20:26.767 : en:Chapter 05
00:25:47.837 : en:Chapter 06
00:35:15.780 : en:Chapter 07
00:42:53.737 : en:Chapter 08
00:47:13.664 : en:Chapter 09
00:52:57.883 : en:Chapter 10
00:55:41.463 : en:Chapter 11
01:01:02.659 : en:Chapter 12
01:06:11.384 : en:Chapter 13
01:10:23.135 : en:Chapter 14
01:13:51.885 : en:Chapter 15
01:18:26.326 : en:Chapter 16
01:22:39.496 : en:Chapter 17
01:32:57.947 : en:Chapter 18
01:38:30.404 : en:Chapter 19