General

Unique ID : 199142747416516545680899500211504878324 (0x95D17F7FEC4F06969D9CBB970E6312F4)
Complete name : /movies/d/Double_Indemnity_1944_1080p_BluRay_Full_HD_AC3_HaB_30NAMA.mkv
Format : Matroska
Format version : Version 2
File size : 14.0 GiB
Duration : 1 h 47 min
Overall bit rate mode : Variable
Overall bit rate : 18.5 Mb/s
Encoded date : UTC 2012-08-04 08:26:32
Writing application : mkvmerge v5.7.0 ('The Whirlwind') built on Jul 8 2012 20:08:51
Writing library : libebml v1.2.3 + libmatroska v1.3.0

Video

ID : 1
Format : AVC
Format/Info : Advanced Video Codec
Format profile : High@L4
Format settings : CABAC / 5 Ref Frames
Format settings, CABAC : Yes
Format settings, ReFrames : 5 frames
Codec ID : V_MPEG4/ISO/AVC
Duration : 1 h 47 min
Bit rate : 17.6 Mb/s
Width : 1 420 pixels
Height : 1 080 pixels
Display aspect ratio : 4:3
Frame rate mode : Constant
Frame rate : 23.976 (24000/1001) FPS
Color space : YUV
Chroma subsampling : 4:2:0
Bit depth : 8 bits
Scan type : Progressive
Bits/(Pixel*Frame) : 0.479
Stream size : 13.3 GiB (95%)
Title : Double Indemnity
Writing library : x264 core 125 r2200 999b753
Encoding settings : cabac=1 / ref=5 / deblock=1:-3:-3 / analyse=0x3:0x133 / me=tesa / subme=11 / psy=1 / psy_rd=1.05:0.00 / mixed_ref=1 / me_range=16 / chroma_me=0 / trellis=2 / 8x8dct=1 / cqm=0 / deadzone=21,11 / fast_pskip=0 / chroma_qp_offset=-2 / threads=9 / lookahead_threads=1 / sliced_threads=0 / nr=0 / decimate=1 / interlaced=0 / bluray_compat=0 / constrained_intra=0 / bframes=12 / b_pyramid=2 / b_adapt=2 / b_bias=0 / direct=3 / weightb=1 / open_gop=0 / weightp=2 / keyint=250 / keyint_min=23 / scenecut=40 / intra_refresh=0 / rc=crf / mbtree=0 / crf=20.5 / qcomp=0.75 / qpmin=0 / qpmax=69 / qpstep=4 / ip_ratio=1.40 / pb_ratio=1.30 / aq=1:0.65
Language : English
Default : Yes
Forced : No

Audio #1

ID : 2
Format : AC-3
Format/Info : Audio Coding 3
Commercial name : Dolby Digital
Codec ID : A_AC3
Duration : 1 h 47 min
Bit rate mode : Constant
Bit rate : 448 kb/s
Channel(s) : 2 channels
Channel layout : L R
Sampling rate : 48.0 kHz
Frame rate : 31.250 FPS (1536 SPF)
Bit depth : 16 bits
Compression mode : Lossy
Stream size : 346 MiB (2%)
Language : English
Service kind : Complete Main
Default : Yes
Forced : No

Audio #2

ID : 3
Format : Vorbis
Format settings, Floor : 1
Codec ID : A_VORBIS
Duration : 1 h 47 min
Bit rate mode : Variable
Bit rate : 80.0 kb/s
Channel(s) : 2 channels
Sampling rate : 48.0 kHz
Compression mode : Lossy
Stream size : 61.8 MiB (0%)
Title : Commentary
Writing library : aoTuV 20110424 (UTC 2011-04-24)
Default : No
Forced : No

Text

ID : 4
Format : UTF-8
Codec ID : S_TEXT/UTF8
Codec ID/Info : UTF-8 Plain Text
Title : English SDH
Language : English
Default : No
Forced : No

Menu

00:00:00.000 : en:The End of the Line
00:01:31.091 : en:Office Memorandum
00:07:14.183 : en:Fully Covered
00:12:35.963 : en:The Little Man
00:16:57.391 : en:Sour Taste
00:22:48.617 : en:Straight Down the Line
00:32:57.684 : en:Duplicate Application
00:37:18.653 : en:Accidentally on Purpose
00:42:25.501 : en:Desk Work
00:47:45.195 : en:Extra Careful
00:51:35.634 : en:The End of the Line
01:00:13.526 : en:Carrying the Ball
01:08:43.452 : en:A Troubling Hunch
01:13:51.677 : en:Awful Feeling
01:18:02.177 : en:Familiar Face
01:23:42.517 : en:Sticking Together
01:30:50.486 : en:Getting Off the Trolley
01:42:34.147 : en:All Washed Up