General

Unique ID : 168174608761495191227282294396621975443 (0x7E854061A4FF5DFEDE12555C8EC86F93)
Complete name : /home/30nama/movies/e/Extraction_2020_10bit_1080p_x265_WEB-DL_AC3_SAMPA_30NAMA.mkv
Format : Matroska
Format version : Version 4
File size : 4.67 GiB
Duration : 1 h 57 min
Overall bit rate : 5 698 kb/s
Movie name : Extraction (2020) (1080p x265 WEB-DL SAMPA)
Encoded date : UTC 2020-05-05 12:44:07
Writing application : mkvmerge v46.0.0 ('No Deeper Escape') 64-bit
Writing library : libebml v1.3.10 + libmatroska v1.5.2
Cover : Yes
Attachments : cover.jpg

Video

ID : 1
Format : HEVC
Format/Info : High Efficiency Video Coding
Format profile : Main 10@L4@Main
Codec ID : V_MPEGH/ISO/HEVC
Duration : 1 h 57 min
Bit rate : 4 872 kb/s
Width : 1 920 pixels
Height : 800 pixels
Display aspect ratio : 2.40:1
Frame rate mode : Constant
Frame rate : 24.000 FPS
Color space : YUV
Chroma subsampling : 4:2:0
Bit depth : 10 bits
Bits/(Pixel*Frame) : 0.132
Stream size : 4.00 GiB (86%)
Writing library : x265 3.3+2-gbe2d82093:[Windows][GCC 9.2.0][64 bit] 10bit
Encoding settings : cpuid=1111039 / frame-threads=2 / numa-pools=4 / wpp / no-pmode / no-pme / no-psnr / no-ssim / log-level=2 / input-csp=1 / input-res=1920x800 / interlace=0 / total-frames=169120 / level-idc=0 / high-tier=1 / uhd-bd=0 / ref=4 / no-allow-non-conformance / no-repeat-headers / annexb / no-aud / no-hrd / info / hash=0 / no-temporal-layers / open-gop / min-keyint=24 / keyint=250 / gop-lookahead=0 / bframes=4 / b-adapt=2 / b-pyramid / bframe-bias=0 / rc-lookahead=30 / lookahead-slices=4 / scenecut=40 / hist-scenecut=0 / radl=0 / no-splice / no-intra-refresh / ctu=64 / min-cu-size=8 / no-rect / no-amp / max-tu-size=32 / tu-inter-depth=1 / tu-intra-depth=1 / limit-tu=0 / rdoq-level=2 / dynamic-rd=0.00 / no-ssim-rd / signhide / no-tskip / nr-intra=0 / nr-inter=0 / no-constrained-intra / strong-intra-smoothing / max-merge=3 / limit-refs=3 / limit-modes / me=2 / subme=3 / merange=48 / temporal-mvp / no-frame-dup / hme / Level / merange / L0,L1,L2=16,32,48 / weightp / no-weightb / no-analyze-src-pics / deblock=0:0 / no-sao / no-sao-non-deblock / rd=4 / selective-sao=0 / no-early-skip / rskip / no-fast-intra / no-tskip-fast / no-cu-lossless / no-b-intra / no-splitrd-skip / rdpenalty=0 / psy-rd=2.00 / psy-rdoq=1.50 / no-rd-refine / no-lossless / cbqpoffs=0 / crqpoffs=0 / rc=crf / crf=18.0 / qcomp=0.60 / qpstep=4 / stats-write=0 / stats-read=0 / ipratio=1.40 / pbratio=1.30 / aq-mode=3 / aq-strength=1.00 / cutree / zone-count=0 / no-strict-cbr / qg-size=32 / no-rc-grain / qpmax=69 / qpmin=0 / no-const-vbv / sar=0 / overscan=0 / videoformat=5 / range=0 / colorprim=1 / transfer=1 / colormatrix=1 / chromaloc=0 / display-window=0 / cll=0,0 / min-luma=0 / max-luma=1023 / log2-max-poc-lsb=8 / vui-timing-info / vui-hrd-info / slices=1 / no-opt-qp-pps / no-opt-ref-list-length-pps / no-multi-pass-opt-rps / scenecut-bias=0.00 / hist-threshold=0.01 / no-opt-cu-delta-qp / no-aq-motion / no-hdr10 / no-hdr10-opt / no-dhdr10-opt / no-idr-recovery-sei / analysis-reuse-level=0 / analysis-save-reuse-level=0 / analysis-load-reuse-level=0 / scale-factor=0 / refine-intra=0 / refine-inter=0 / refine-mv=1 / refine-ctu-distortion=0 / no-limit-sao / ctu-info=0 / no-lowpass-dct / refine-analysis-type=0 / copy-pic=1 / max-ausize-factor=1.0 / no-dynamic-refine / no-single-sei / no-hevc-aq / no-svt / no-field / qp-adaptation-range=1.00 / no-scenecut-aware-qpconformance-window-offsets / right=0 / bottom=0
Default : Yes
Forced : No
Color range : Limited
Color primaries : BT.709
Transfer characteristics : BT.709
Matrix coefficients : BT.709

Audio

ID : 2
Format : E-AC-3 JOC
Format/Info : Enhanced AC-3 with Joint Object Coding
Commercial name : Dolby Digital Plus with Dolby Atmos
Codec ID : A_EAC3
Duration : 1 h 57 min
Bit rate mode : Constant
Bit rate : 768 kb/s
Channel(s) : 6 channels
Channel layout : L R C LFE Ls Rs
Sampling rate : 48.0 kHz
Frame rate : 31.250 FPS (1536 SPF)
Compression mode : Lossy
Stream size : 645 MiB (13%)
Language : English
Service kind : Complete Main
Default : No
Forced : No
Complexity index : 16
Number of dynamic objects : 15
Bed channel count : 1 channel
Bed channel configuration : LFE

Text #1

ID : 3
Format : VobSub
Muxing mode : zlib
Codec ID : S_VOBSUB
Codec ID/Info : Picture based subtitle format used on DVDs
Duration : 1 h 39 min
Bit rate : 5 673 b/s
Count of elements : 925
Stream size : 4.05 MiB (0%)
Language : English
Default : No
Forced : No

Text #2

ID : 4
Format : VobSub
Muxing mode : zlib
Codec ID : S_VOBSUB
Codec ID/Info : Picture based subtitle format used on DVDs
Duration : 1 h 22 min
Bit rate : 1 048 b/s
Count of elements : 167
Stream size : 637 KiB (0%)
Title : Forced
Language : English
Default : No
Forced : Yes

Text #3

ID : 5
Format : VobSub
Muxing mode : zlib
Codec ID : S_VOBSUB
Codec ID/Info : Picture based subtitle format used on DVDs
Duration : 1 h 55 min
Bit rate : 2 653 b/s
Count of elements : 685
Stream size : 2.19 MiB (0%)
Language : Arabic
Default : No
Forced : No

Text #4

ID : 6
Format : VobSub
Muxing mode : zlib
Codec ID : S_VOBSUB
Codec ID/Info : Picture based subtitle format used on DVDs
Duration : 1 h 55 min
Bit rate : 2 771 b/s
Count of elements : 681
Stream size : 2.29 MiB (0%)
Title : Simplified
Language : Chinese
Default : No
Forced : No

Text #5

ID : 7
Format : VobSub
Muxing mode : zlib
Codec ID : S_VOBSUB
Codec ID/Info : Picture based subtitle format used on DVDs
Duration : 1 h 55 min
Bit rate : 2 670 b/s
Count of elements : 744
Stream size : 2.21 MiB (0%)
Title : Traditional
Language : Chinese
Default : No
Forced : No

Text #6

ID : 8
Format : VobSub
Muxing mode : zlib
Codec ID : S_VOBSUB
Codec ID/Info : Picture based subtitle format used on DVDs
Duration : 1 h 55 min
Bit rate : 2 960 b/s
Count of elements : 691
Stream size : 2.45 MiB (0%)
Language : Czech
Default : No
Forced : No

Text #7

ID : 9
Format : VobSub
Muxing mode : zlib
Codec ID : S_VOBSUB
Codec ID/Info : Picture based subtitle format used on DVDs
Duration : 1 h 55 min
Bit rate : 3 133 b/s
Count of elements : 673
Stream size : 2.59 MiB (0%)
Language : Danish
Default : No
Forced : No

Text #8

ID : 10
Format : VobSub
Muxing mode : zlib
Codec ID : S_VOBSUB
Codec ID/Info : Picture based subtitle format used on DVDs
Duration : 1 h 55 min
Bit rate : 3 226 b/s
Count of elements : 667
Stream size : 2.67 MiB (0%)
Language : Dutch
Default : No
Forced : No

Text #9

ID : 11
Format : VobSub
Muxing mode : zlib
Codec ID : S_VOBSUB
Codec ID/Info : Picture based subtitle format used on DVDs
Duration : 1 h 55 min
Bit rate : 3 116 b/s
Count of elements : 674
Stream size : 2.58 MiB (0%)
Language : Finnish
Default : No
Forced : No

Text #10

ID : 12
Format : VobSub
Muxing mode : zlib
Codec ID : S_VOBSUB
Codec ID/Info : Picture based subtitle format used on DVDs
Duration : 1 h 55 min
Bit rate : 3 133 b/s
Count of elements : 689
Stream size : 2.59 MiB (0%)
Language : French
Default : No
Forced : No

Text #11

ID : 13
Format : VobSub
Muxing mode : zlib
Codec ID : S_VOBSUB
Codec ID/Info : Picture based subtitle format used on DVDs
Duration : 1 h 55 min
Bit rate : 3 479 b/s
Count of elements : 680
Stream size : 2.88 MiB (0%)
Language : German
Default : No
Forced : No

Text #12

ID : 14
Format : VobSub
Muxing mode : zlib
Codec ID : S_VOBSUB
Codec ID/Info : Picture based subtitle format used on DVDs
Duration : 1 h 55 min
Bit rate : 3 719 b/s
Count of elements : 699
Stream size : 3.07 MiB (0%)
Language : Greek
Default : No
Forced : No

Text #13

ID : 15
Format : VobSub
Muxing mode : zlib
Codec ID : S_VOBSUB
Codec ID/Info : Picture based subtitle format used on DVDs
Duration : 1 h 55 min
Bit rate : 2 969 b/s
Count of elements : 677
Stream size : 2.45 MiB (0%)
Language : Hebrew
Default : No
Forced : No

Text #14

ID : 16
Format : VobSub
Muxing mode : zlib
Codec ID : S_VOBSUB
Codec ID/Info : Picture based subtitle format used on DVDs
Duration : 1 h 55 min
Bit rate : 3 078 b/s
Count of elements : 674
Stream size : 2.54 MiB (0%)
Language : Hungarian
Default : No
Forced : No

Text #15

ID : 17
Format : VobSub
Muxing mode : zlib
Codec ID : S_VOBSUB
Codec ID/Info : Picture based subtitle format used on DVDs
Duration : 1 h 55 min
Bit rate : 3 553 b/s
Count of elements : 668
Stream size : 2.94 MiB (0%)
Language : Indonesian
Default : No
Forced : No

Text #16

ID : 18
Format : VobSub
Muxing mode : zlib
Codec ID : S_VOBSUB
Codec ID/Info : Picture based subtitle format used on DVDs
Duration : 1 h 55 min
Bit rate : 3 144 b/s
Count of elements : 664
Stream size : 2.60 MiB (0%)
Language : Italian
Default : No
Forced : No

Text #17

ID : 19
Format : VobSub
Muxing mode : zlib
Codec ID : S_VOBSUB
Codec ID/Info : Picture based subtitle format used on DVDs
Duration : 1 h 55 min
Bit rate : 2 094 b/s
Count of elements : 689
Stream size : 1.73 MiB (0%)
Language : Japanese
Default : No
Forced : No

Text #18

ID : 20
Format : VobSub
Muxing mode : zlib
Codec ID : S_VOBSUB
Codec ID/Info : Picture based subtitle format used on DVDs
Duration : 1 h 55 min
Bit rate : 2 516 b/s
Count of elements : 679
Stream size : 2.08 MiB (0%)
Language : Korean
Default : No
Forced : No

Text #19

ID : 21
Format : VobSub
Muxing mode : zlib
Codec ID : S_VOBSUB
Codec ID/Info : Picture based subtitle format used on DVDs
Duration : 1 h 55 min
Bit rate : 3 053 b/s
Count of elements : 655
Stream size : 2.52 MiB (0%)
Language : Norwegian Bokmal
Default : No
Forced : No

Text #20

ID : 22
Format : VobSub
Muxing mode : zlib
Codec ID : S_VOBSUB
Codec ID/Info : Picture based subtitle format used on DVDs
Duration : 1 h 55 min
Bit rate : 2 750 b/s
Count of elements : 668
Stream size : 2.27 MiB (0%)
Language : Polish
Default : No
Forced : No

Text #21

ID : 23
Format : VobSub
Muxing mode : zlib
Codec ID : S_VOBSUB
Codec ID/Info : Picture based subtitle format used on DVDs
Duration : 1 h 55 min
Bit rate : 3 229 b/s
Count of elements : 691
Stream size : 2.67 MiB (0%)
Language : Portuguese
Default : No
Forced : No

Text #22

ID : 24
Format : VobSub
Muxing mode : zlib
Codec ID : S_VOBSUB
Codec ID/Info : Picture based subtitle format used on DVDs
Duration : 1 h 55 min
Bit rate : 3 170 b/s
Count of elements : 672
Stream size : 2.62 MiB (0%)
Title : Brazilian
Language : Portuguese
Default : No
Forced : No

Text #23

ID : 25
Format : VobSub
Muxing mode : zlib
Codec ID : S_VOBSUB
Codec ID/Info : Picture based subtitle format used on DVDs
Duration : 1 h 55 min
Bit rate : 3 100 b/s
Count of elements : 687
Stream size : 2.56 MiB (0%)
Language : Romanian
Default : No
Forced : No

Text #24

ID : 26
Format : VobSub
Muxing mode : zlib
Codec ID : S_VOBSUB
Codec ID/Info : Picture based subtitle format used on DVDs
Duration : 1 h 55 min
Bit rate : 3 580 b/s
Count of elements : 675
Stream size : 2.96 MiB (0%)
Language : Russian
Default : No
Forced : No

Text #25

ID : 27
Format : VobSub
Muxing mode : zlib
Codec ID : S_VOBSUB
Codec ID/Info : Picture based subtitle format used on DVDs
Duration : 1 h 55 min
Bit rate : 3 113 b/s
Count of elements : 697
Stream size : 2.57 MiB (0%)
Title : Castillian
Language : Spanish
Default : No
Forced : No

Text #26

ID : 28
Format : VobSub
Muxing mode : zlib
Codec ID : S_VOBSUB
Codec ID/Info : Picture based subtitle format used on DVDs
Duration : 1 h 55 min
Bit rate : 3 223 b/s
Count of elements : 722
Stream size : 2.66 MiB (0%)
Title : European
Language : Spanish
Default : No
Forced : No

Text #27

ID : 29
Format : VobSub
Muxing mode : zlib
Codec ID : S_VOBSUB
Codec ID/Info : Picture based subtitle format used on DVDs
Duration : 1 h 55 min
Bit rate : 3 169 b/s
Count of elements : 620
Stream size : 2.62 MiB (0%)
Language : Swedish
Default : No
Forced : No

Text #28

ID : 30
Format : VobSub
Muxing mode : zlib
Codec ID : S_VOBSUB
Codec ID/Info : Picture based subtitle format used on DVDs
Duration : 1 h 55 min
Bit rate : 3 205 b/s
Count of elements : 681
Stream size : 2.65 MiB (0%)
Language : Thai
Default : No
Forced : No

Text #29

ID : 31
Format : VobSub
Muxing mode : zlib
Codec ID : S_VOBSUB
Codec ID/Info : Picture based subtitle format used on DVDs
Duration : 1 h 55 min
Bit rate : 3 167 b/s
Count of elements : 661
Stream size : 2.62 MiB (0%)
Language : Turkish
Default : No
Forced : No

Text #30

ID : 32
Format : VobSub
Muxing mode : zlib
Codec ID : S_VOBSUB
Codec ID/Info : Picture based subtitle format used on DVDs
Duration : 1 h 55 min
Bit rate : 3 572 b/s
Count of elements : 674
Stream size : 2.95 MiB (0%)
Language : Vietnamese
Default : No
Forced : No

Menu

00:00:00.000 : en:Netflix Titles
00:00:05.132 : en:Prelude
00:02:28.300 : en:Ovi Mahajan
00:04:43.458 : en:Kidnapped
00:06:10.794 : en:The Improsoned Drug Lord
00:07:58.465 : en:There is a Man
00:09:01.119 : en:Tyler Rake
00:11:07.277 : en:Taking the Job
00:14:57.482 : en:Briefing
00:15:46.296 : en:Welcome to Dhaka
00:19:50.135 : en:Rake Cleans House
00:23:49.864 : en:Farhad's Wit
00:27:04.190 : en:The Set-Up
00:34:51.140 : en:The Chase
00:46:20.334 : en:Police Search
00:52:11.392 : en:Saju Calls Home
00:55:23.979 : en:The Goonies From Hell
01:00:22.927 : en:Rake's Distraction
01:03:35.023 : en:Asif Shares With Farhad
01:05:59.705 : en:Families & Loss
01:11:17.263 : en:Nik The Mercenary
01:18:32.690 : en:Rake's Request
01:21:10.834 : :The Checkpoint
01:25:22.583 : en:Bridge Battle
01:32:42.939 : en:The Sniper
01:35:12.941 : en:Final Push
01:40:50.611 : en:Epilogue
01:43:10.488 : en:Credits