General

Unique ID : 146146468664985966147147770273470806704 (0x6DF2C9390DFCF4C9E1C44D7249C2FAB0)
Complete name : /home/30nama/movies/e/Extraction_2020_10bit_HDR_2160p_x265_WEB-DL_6CH_PSA_30NAMA.mkv
Format : Matroska
Format version : Version 4
File size : 2.35 GiB
Duration : 1 h 57 min
Overall bit rate : 2 863 kb/s
Movie name : PSArips.com | Extraction.2020.2160p.10bit.HDR.WEBRip.6CH.x265.HEVC-PSA
Encoded date : UTC 2020-05-02 14:41:51
Writing application : mkvmerge v46.0.0 ('No Deeper Escape') 64-bit
Writing library : libebml v1.3.10 + libmatroska v1.5.2

Video

ID : 1
Format : HEVC
Format/Info : High Efficiency Video Coding
Commercial name : HDR10
Format profile : Main 10@L5.1@High
Codec ID : V_MPEGH/ISO/HEVC
Duration : 1 h 56 min
Bit rate : 2 692 kb/s
Width : 3 840 pixels
Height : 1 600 pixels
Display aspect ratio : 2.40:1
Frame rate mode : Constant
Frame rate : 24.000 FPS
Color space : YUV
Chroma subsampling : 4:2:0 (Type 2)
Bit depth : 10 bits
Bits/(Pixel*Frame) : 0.018
Stream size : 2.18 GiB (93%)
Default : Yes
Forced : No
Color range : Limited
Color primaries : BT.2020
Transfer characteristics : PQ
Matrix coefficients : BT.2020 non-constant
Mastering display color primaries : Display P3
Mastering display luminance : min: 0.0001 cd/m2, max: 1000 cd/m2
Maximum Content Light Level : 2873 cd/m2
Maximum Frame-Average Light Level : 482 cd/m2

Audio

ID : 2
Format : AAC LC SBR
Format/Info : Advanced Audio Codec Low Complexity with Spectral Band Replication
Commercial name : HE-AAC
Format settings : Explicit
Codec ID : A_AAC-2
Duration : 1 h 57 min
Bit rate : 201 kb/s
Channel(s) : 6 channels
Channel layout : C L R Ls Rs LFE
Sampling rate : 48.0 kHz
Frame rate : 23.438 FPS (2048 SPF)
Compression mode : Lossy
Delay relative to video : 23 ms
Stream size : 169 MiB (7%)
Language : English
Default : Yes
Forced : No

Text #1

ID : 3
Format : UTF-8
Codec ID : S_TEXT/UTF8
Codec ID/Info : UTF-8 Plain Text
Duration : 1 h 34 min
Bit rate : 27 b/s
Count of elements : 717
Stream size : 19.1 KiB (0%)
Language : English
Default : Yes
Forced : No

Text #2

ID : 4
Format : UTF-8
Codec ID : S_TEXT/UTF8
Codec ID/Info : UTF-8 Plain Text
Duration : 1 h 22 min
Bit rate : 6 b/s
Count of elements : 167
Stream size : 3.83 KiB (0%)
Title : Forced
Language : English
Default : No
Forced : Yes

Text #3

ID : 5
Format : UTF-8
Codec ID : S_TEXT/UTF8
Codec ID/Info : UTF-8 Plain Text
Duration : 1 h 39 min
Bit rate : 34 b/s
Count of elements : 925
Stream size : 24.9 KiB (0%)
Title : SDH
Language : English
Default : No
Forced : No

Text #4

ID : 6
Format : UTF-8
Codec ID : S_TEXT/UTF8
Codec ID/Info : UTF-8 Plain Text
Duration : 1 h 55 min
Bit rate : 34 b/s
Count of elements : 685
Stream size : 29.6 KiB (0%)
Language : Arabic
Default : No
Forced : No

Text #5

ID : 7
Format : UTF-8
Codec ID : S_TEXT/UTF8
Codec ID/Info : UTF-8 Plain Text
Duration : 1 h 55 min
Bit rate : 19 b/s
Count of elements : 691
Stream size : 16.3 KiB (0%)
Language : Czech
Default : No
Forced : No

Text #6

ID : 8
Format : UTF-8
Codec ID : S_TEXT/UTF8
Codec ID/Info : UTF-8 Plain Text
Duration : 1 h 55 min
Bit rate : 19 b/s
Count of elements : 673
Stream size : 16.4 KiB (0%)
Language : Danish
Default : No
Forced : No

Text #7

ID : 9
Format : UTF-8
Codec ID : S_TEXT/UTF8
Codec ID/Info : UTF-8 Plain Text
Duration : 1 h 55 min
Bit rate : 20 b/s
Count of elements : 680
Stream size : 17.6 KiB (0%)
Language : German
Default : No
Forced : No

Text #8

ID : 10
Format : UTF-8
Codec ID : S_TEXT/UTF8
Codec ID/Info : UTF-8 Plain Text
Duration : 1 h 55 min
Bit rate : 32 b/s
Count of elements : 699
Stream size : 27.6 KiB (0%)
Language : Greek
Default : No
Forced : No

Text #9

ID : 11
Format : UTF-8
Codec ID : S_TEXT/UTF8
Codec ID/Info : UTF-8 Plain Text
Duration : 1 h 55 min
Bit rate : 19 b/s
Count of elements : 697
Stream size : 16.5 KiB (0%)
Language : Spanish
Default : No
Forced : No

Text #10

ID : 12
Format : UTF-8
Codec ID : S_TEXT/UTF8
Codec ID/Info : UTF-8 Plain Text
Duration : 1 h 55 min
Bit rate : 20 b/s
Count of elements : 722
Stream size : 17.1 KiB (0%)
Title : European
Language : Spanish
Default : No
Forced : No

Text #11

ID : 13
Format : UTF-8
Codec ID : S_TEXT/UTF8
Codec ID/Info : UTF-8 Plain Text
Duration : 1 h 55 min
Bit rate : 19 b/s
Count of elements : 674
Stream size : 16.1 KiB (0%)
Language : Finnish
Default : No
Forced : No

Text #12

ID : 14
Format : UTF-8
Codec ID : S_TEXT/UTF8
Codec ID/Info : UTF-8 Plain Text
Duration : 1 h 55 min
Bit rate : 20 b/s
Count of elements : 689
Stream size : 17.1 KiB (0%)
Language : French
Default : No
Forced : No

Text #13

ID : 15
Format : UTF-8
Codec ID : S_TEXT/UTF8
Codec ID/Info : UTF-8 Plain Text
Duration : 1 h 55 min
Bit rate : 33 b/s
Count of elements : 677
Stream size : 28.1 KiB (0%)
Language : Hebrew
Default : No
Forced : No

Text #14

ID : 16
Format : UTF-8
Codec ID : S_TEXT/UTF8
Codec ID/Info : UTF-8 Plain Text
Duration : 1 h 55 min
Bit rate : 19 b/s
Count of elements : 674
Stream size : 16.2 KiB (0%)
Language : Hungarian
Default : No
Forced : No

Text #15

ID : 17
Format : UTF-8
Codec ID : S_TEXT/UTF8
Codec ID/Info : UTF-8 Plain Text
Duration : 1 h 55 min
Bit rate : 20 b/s
Count of elements : 668
Stream size : 17.1 KiB (0%)
Language : Indonesian
Default : No
Forced : No

Text #16

ID : 18
Format : UTF-8
Codec ID : S_TEXT/UTF8
Codec ID/Info : UTF-8 Plain Text
Duration : 1 h 55 min
Bit rate : 19 b/s
Count of elements : 664
Stream size : 16.8 KiB (0%)
Language : Italian
Default : No
Forced : No

Text #17

ID : 19
Format : UTF-8
Codec ID : S_TEXT/UTF8
Codec ID/Info : UTF-8 Plain Text
Duration : 1 h 55 min
Bit rate : 20 b/s
Count of elements : 689
Stream size : 17.0 KiB (0%)
Language : Japanese
Default : No
Forced : No

Text #18

ID : 20
Format : UTF-8
Codec ID : S_TEXT/UTF8
Codec ID/Info : UTF-8 Plain Text
Duration : 1 h 55 min
Bit rate : 23 b/s
Count of elements : 679
Stream size : 20.0 KiB (0%)
Language : Korean
Default : No
Forced : No

Text #19

ID : 21
Format : UTF-8
Codec ID : S_TEXT/UTF8
Codec ID/Info : UTF-8 Plain Text
Duration : 1 h 55 min
Bit rate : 18 b/s
Count of elements : 655
Stream size : 16.0 KiB (0%)
Language : Norwegian Bokmal
Default : No
Forced : No

Text #20

ID : 22
Format : UTF-8
Codec ID : S_TEXT/UTF8
Codec ID/Info : UTF-8 Plain Text
Duration : 1 h 55 min
Bit rate : 19 b/s
Count of elements : 667
Stream size : 16.1 KiB (0%)
Language : Dutch
Default : No
Forced : No

Text #21

ID : 23
Format : UTF-8
Codec ID : S_TEXT/UTF8
Codec ID/Info : UTF-8 Plain Text
Duration : 1 h 55 min
Bit rate : 17 b/s
Count of elements : 668
Stream size : 14.4 KiB (0%)
Language : Polish
Default : No
Forced : No

Text #22

ID : 24
Format : UTF-8
Codec ID : S_TEXT/UTF8
Codec ID/Info : UTF-8 Plain Text
Duration : 1 h 55 min
Bit rate : 20 b/s
Count of elements : 691
Stream size : 16.9 KiB (0%)
Language : Portuguese
Default : No
Forced : No

Text #23

ID : 25
Format : UTF-8
Codec ID : S_TEXT/UTF8
Codec ID/Info : UTF-8 Plain Text
Duration : 1 h 55 min
Bit rate : 19 b/s
Count of elements : 672
Stream size : 16.3 KiB (0%)
Title : Brazilian
Language : Portuguese
Default : No
Forced : No

Text #24

ID : 26
Format : UTF-8
Codec ID : S_TEXT/UTF8
Codec ID/Info : UTF-8 Plain Text
Duration : 1 h 55 min
Bit rate : 23 b/s
Count of elements : 687
Stream size : 19.5 KiB (0%)
Language : Romanian
Default : No
Forced : No

Text #25

ID : 27
Format : UTF-8
Codec ID : S_TEXT/UTF8
Codec ID/Info : UTF-8 Plain Text
Duration : 1 h 55 min
Bit rate : 30 b/s
Count of elements : 675
Stream size : 26.2 KiB (0%)
Language : Russian
Default : No
Forced : No

Text #26

ID : 28
Format : UTF-8
Codec ID : S_TEXT/UTF8
Codec ID/Info : UTF-8 Plain Text
Duration : 1 h 55 min
Bit rate : 19 b/s
Count of elements : 620
Stream size : 16.9 KiB (0%)
Language : Swedish
Default : No
Forced : No

Text #27

ID : 29
Format : UTF-8
Codec ID : S_TEXT/UTF8
Codec ID/Info : UTF-8 Plain Text
Duration : 1 h 55 min
Bit rate : 51 b/s
Count of elements : 681
Stream size : 43.2 KiB (0%)
Language : Thai
Default : No
Forced : No

Text #28

ID : 30
Format : UTF-8
Codec ID : S_TEXT/UTF8
Codec ID/Info : UTF-8 Plain Text
Duration : 1 h 55 min
Bit rate : 19 b/s
Count of elements : 661
Stream size : 16.7 KiB (0%)
Language : Turkish
Default : No
Forced : No

Text #29

ID : 31
Format : UTF-8
Codec ID : S_TEXT/UTF8
Codec ID/Info : UTF-8 Plain Text
Duration : 1 h 55 min
Bit rate : 28 b/s
Count of elements : 674
Stream size : 24.3 KiB (0%)
Language : Vietnamese
Default : No
Forced : No

Text #30

ID : 32
Format : UTF-8
Codec ID : S_TEXT/UTF8
Codec ID/Info : UTF-8 Plain Text
Duration : 1 h 55 min
Bit rate : 22 b/s
Count of elements : 681
Stream size : 19.2 KiB (0%)
Title : Simplified
Language : Chinese
Default : No
Forced : No

Text #31

ID : 33
Format : UTF-8
Codec ID : S_TEXT/UTF8
Codec ID/Info : UTF-8 Plain Text
Duration : 1 h 55 min
Bit rate : 21 b/s
Count of elements : 744
Stream size : 18.5 KiB (0%)
Title : Traditional
Language : Chinese
Default : No
Forced : No