General

Unique ID : 62866555653623456319297750250544188145 (0x2F4BA880044741769B651ECBF5144AF1)
Complete name : /home/30nama/movies/e/Extraction_2020_720p_WEB-DL_5.1CH_CMRG_30NAMA.mkv
Format : Matroska
Format version : Version 4
File size : 2.85 GiB
Duration : 1 h 57 min
Overall bit rate mode : Variable
Overall bit rate : 3 473 kb/s
Encoded date : UTC 2020-04-24 07:05:45
Writing application : mkvmerge v44.0.0 ('Domino') 64-bit
Writing library : libebml v1.3.10 + libmatroska v1.5.2

Video

ID : 1
Format : AVC
Format/Info : Advanced Video Codec
Format profile : Main@L3.1
Format settings : CABAC / 3 Ref Frames
Format settings, CABAC : Yes
Format settings, ReFrames : 3 frames
Codec ID : V_MPEG4/ISO/AVC
Duration : 1 h 57 min
Bit rate mode : Variable
Bit rate : 2 740 kb/s
Maximum bit rate : 4 110 kb/s
Width : 1 280 pixels
Height : 720 pixels
Display aspect ratio : 16:9
Frame rate mode : Constant
Frame rate : 24.000 FPS
Color space : YUV
Chroma subsampling : 4:2:0
Bit depth : 8 bits
Scan type : Progressive
Bits/(Pixel*Frame) : 0.124
Stream size : 2.22 GiB (78%)
Writing library : x264 core 148 r2717 0d2410d
Encoding settings : cabac=1 / ref=3 / deblock=1:0:0 / analyse=0x1:0x111 / me=umh / subme=10 / psy=1 / psy_rd=1.00:0.00 / mixed_ref=1 / me_range=24 / chroma_me=1 / trellis=2 / 8x8dct=0 / cqm=0 / deadzone=21,11 / fast_pskip=1 / chroma_qp_offset=-2 / threads=6 / lookahead_threads=1 / sliced_threads=0 / nr=0 / decimate=1 / interlaced=0 / bluray_compat=0 / stitchable=1 / constrained_intra=0 / bframes=2 / b_pyramid=0 / b_adapt=2 / b_bias=0 / direct=3 / weightb=1 / open_gop=0 / weightp=2 / keyint=250 / keyint_min=24 / scenecut=0 / intra_refresh=0 / rc_lookahead=48 / rc=2pass / mbtree=1 / bitrate=2740 / ratetol=1.0 / qcomp=0.50 / qpmin=6 / qpmax=51 / qpstep=4 / cplxblur=20.0 / qblur=0.5 / vbv_maxrate=4110 / vbv_bufsize=5480 / nal_hrd=vbr / filler=0 / ip_ratio=1.40 / aq=1:1.00
Default : Yes
Forced : No

Audio

ID : 2
Format : E-AC-3 JOC
Format/Info : Enhanced AC-3 with Joint Object Coding
Commercial name : Dolby Digital Plus with Dolby Atmos
Codec ID : A_EAC3
Duration : 1 h 57 min
Bit rate mode : Constant
Bit rate : 768 kb/s
Channel(s) : 6 channels
Channel layout : L R C LFE Ls Rs
Sampling rate : 48.0 kHz
Frame rate : 31.250 FPS (1536 SPF)
Compression mode : Lossy
Stream size : 645 MiB (22%)
Title : English
Language : English
Service kind : Complete Main
Default : Yes
Forced : No
Complexity index : 16
Number of dynamic objects : 15
Bed channel count : 1 channel
Bed channel configuration : LFE

Text #1

ID : 3
Format : UTF-8
Codec ID : S_TEXT/UTF8
Codec ID/Info : UTF-8 Plain Text
Duration : 1 h 39 min
Bit rate : 34 b/s
Count of elements : 925
Stream size : 24.9 KiB (0%)
Title : English
Language : English
Default : No
Forced : No

Text #2

ID : 4
Format : UTF-8
Codec ID : S_TEXT/UTF8
Codec ID/Info : UTF-8 Plain Text
Duration : 1 h 22 min
Bit rate : 6 b/s
Count of elements : 167
Stream size : 3.83 KiB (0%)
Title : English (FORCED)
Language : English
Default : No
Forced : Yes

Text #3

ID : 5
Format : UTF-8
Codec ID : S_TEXT/UTF8
Codec ID/Info : UTF-8 Plain Text
Duration : 1 h 55 min
Bit rate : 35 b/s
Count of elements : 685
Stream size : 29.6 KiB (0%)
Title : Arabic
Language : Arabic
Default : No
Forced : No

Text #4

ID : 6
Format : UTF-8
Codec ID : S_TEXT/UTF8
Codec ID/Info : UTF-8 Plain Text
Duration : 1 h 55 min
Bit rate : 22 b/s
Count of elements : 681
Stream size : 19.2 KiB (0%)
Title : Chinese Simplified
Language : Chinese
Default : No
Forced : No

Text #5

ID : 7
Format : UTF-8
Codec ID : S_TEXT/UTF8
Codec ID/Info : UTF-8 Plain Text
Duration : 1 h 55 min
Bit rate : 21 b/s
Count of elements : 744
Stream size : 18.5 KiB (0%)
Title : Chinese Traditional
Language : Chinese
Default : No
Forced : No

Text #6

ID : 8
Format : UTF-8
Codec ID : S_TEXT/UTF8
Codec ID/Info : UTF-8 Plain Text
Duration : 1 h 55 min
Bit rate : 19 b/s
Count of elements : 691
Stream size : 16.3 KiB (0%)
Title : Czech
Language : Czech
Default : No
Forced : No

Text #7

ID : 9
Format : UTF-8
Codec ID : S_TEXT/UTF8
Codec ID/Info : UTF-8 Plain Text
Duration : 1 h 55 min
Bit rate : 19 b/s
Count of elements : 673
Stream size : 16.4 KiB (0%)
Title : Danish
Language : Danish
Default : No
Forced : No

Text #8

ID : 10
Format : UTF-8
Codec ID : S_TEXT/UTF8
Codec ID/Info : UTF-8 Plain Text
Duration : 1 h 55 min
Bit rate : 19 b/s
Count of elements : 667
Stream size : 16.2 KiB (0%)
Title : Dutch
Language : Dutch
Default : No
Forced : No

Text #9

ID : 11
Format : UTF-8
Codec ID : S_TEXT/UTF8
Codec ID/Info : UTF-8 Plain Text
Duration : 1 h 55 min
Bit rate : 19 b/s
Count of elements : 674
Stream size : 16.1 KiB (0%)
Title : Finnish
Language : Finnish
Default : No
Forced : No

Text #10

ID : 12
Format : UTF-8
Codec ID : S_TEXT/UTF8
Codec ID/Info : UTF-8 Plain Text
Duration : 1 h 55 min
Bit rate : 20 b/s
Count of elements : 689
Stream size : 17.2 KiB (0%)
Title : French
Language : French
Default : No
Forced : No

Text #11

ID : 13
Format : UTF-8
Codec ID : S_TEXT/UTF8
Codec ID/Info : UTF-8 Plain Text
Duration : 1 h 55 min
Bit rate : 20 b/s
Count of elements : 680
Stream size : 17.6 KiB (0%)
Title : German
Language : German
Default : No
Forced : No

Text #12

ID : 14
Format : UTF-8
Codec ID : S_TEXT/UTF8
Codec ID/Info : UTF-8 Plain Text
Duration : 1 h 55 min
Bit rate : 32 b/s
Count of elements : 699
Stream size : 27.7 KiB (0%)
Title : Greek
Language : Greek
Default : No
Forced : No

Text #13

ID : 15
Format : UTF-8
Codec ID : S_TEXT/UTF8
Codec ID/Info : UTF-8 Plain Text
Duration : 1 h 55 min
Bit rate : 33 b/s
Count of elements : 677
Stream size : 28.1 KiB (0%)
Title : Hebrew
Language : Hebrew
Default : No
Forced : No

Text #14

ID : 16
Format : UTF-8
Codec ID : S_TEXT/UTF8
Codec ID/Info : UTF-8 Plain Text
Duration : 1 h 55 min
Bit rate : 19 b/s
Count of elements : 674
Stream size : 16.2 KiB (0%)
Title : Hungarian
Language : Hungarian
Default : No
Forced : No

Text #15

ID : 17
Format : UTF-8
Codec ID : S_TEXT/UTF8
Codec ID/Info : UTF-8 Plain Text
Duration : 1 h 55 min
Bit rate : 20 b/s
Count of elements : 668
Stream size : 17.1 KiB (0%)
Title : Indonesian
Language : Indonesian
Default : No
Forced : No

Text #16

ID : 18
Format : UTF-8
Codec ID : S_TEXT/UTF8
Codec ID/Info : UTF-8 Plain Text
Duration : 1 h 55 min
Bit rate : 19 b/s
Count of elements : 664
Stream size : 16.8 KiB (0%)
Title : Italian
Language : Italian
Default : No
Forced : No

Text #17

ID : 19
Format : UTF-8
Codec ID : S_TEXT/UTF8
Codec ID/Info : UTF-8 Plain Text
Duration : 1 h 55 min
Bit rate : 20 b/s
Count of elements : 689
Stream size : 17.1 KiB (0%)
Title : Japanese
Language : Japanese
Default : No
Forced : No

Text #18

ID : 20
Format : UTF-8
Codec ID : S_TEXT/UTF8
Codec ID/Info : UTF-8 Plain Text
Duration : 1 h 55 min
Bit rate : 23 b/s
Count of elements : 679
Stream size : 20.0 KiB (0%)
Title : Korean
Language : Korean
Default : No
Forced : No

Text #19

ID : 21
Format : UTF-8
Codec ID : S_TEXT/UTF8
Codec ID/Info : UTF-8 Plain Text
Duration : 1 h 55 min
Bit rate : 18 b/s
Count of elements : 655
Stream size : 16.0 KiB (0%)
Title : Norwegian Bokmal
Language : Norwegian Bokmal
Default : No
Forced : No

Text #20

ID : 22
Format : UTF-8
Codec ID : S_TEXT/UTF8
Codec ID/Info : UTF-8 Plain Text
Duration : 1 h 55 min
Bit rate : 17 b/s
Count of elements : 668
Stream size : 14.5 KiB (0%)
Title : Polish
Language : Polish
Default : No
Forced : No

Text #21

ID : 23
Format : UTF-8
Codec ID : S_TEXT/UTF8
Codec ID/Info : UTF-8 Plain Text
Duration : 1 h 55 min
Bit rate : 20 b/s
Count of elements : 691
Stream size : 17.0 KiB (0%)
Title : Portuguese
Language : Portuguese
Default : No
Forced : No

Text #22

ID : 24
Format : UTF-8
Codec ID : S_TEXT/UTF8
Codec ID/Info : UTF-8 Plain Text
Duration : 1 h 55 min
Bit rate : 19 b/s
Count of elements : 672
Stream size : 16.4 KiB (0%)
Title : Brazilian Portuguese
Language : Portuguese
Default : No
Forced : No

Text #23

ID : 25
Format : UTF-8
Codec ID : S_TEXT/UTF8
Codec ID/Info : UTF-8 Plain Text
Duration : 1 h 55 min
Bit rate : 23 b/s
Count of elements : 687
Stream size : 19.6 KiB (0%)
Title : Romanian
Language : Romanian
Default : No
Forced : No

Text #24

ID : 26
Format : UTF-8
Codec ID : S_TEXT/UTF8
Codec ID/Info : UTF-8 Plain Text
Duration : 1 h 55 min
Bit rate : 31 b/s
Count of elements : 675
Stream size : 26.3 KiB (0%)
Title : Russian
Language : Russian
Default : No
Forced : No

Text #25

ID : 27
Format : UTF-8
Codec ID : S_TEXT/UTF8
Codec ID/Info : UTF-8 Plain Text
Duration : 1 h 55 min
Bit rate : 19 b/s
Count of elements : 697
Stream size : 16.6 KiB (0%)
Title : Spanish
Language : Spanish
Default : No
Forced : No

Text #26

ID : 28
Format : UTF-8
Codec ID : S_TEXT/UTF8
Codec ID/Info : UTF-8 Plain Text
Duration : 1 h 55 min
Bit rate : 20 b/s
Count of elements : 722
Stream size : 17.1 KiB (0%)
Title : European Spanish
Language : Spanish
Default : No
Forced : No

Text #27

ID : 29
Format : UTF-8
Codec ID : S_TEXT/UTF8
Codec ID/Info : UTF-8 Plain Text
Duration : 1 h 55 min
Bit rate : 20 b/s
Count of elements : 620
Stream size : 16.9 KiB (0%)
Title : Swedish
Language : Swedish
Default : No
Forced : No

Text #28

ID : 30
Format : UTF-8
Codec ID : S_TEXT/UTF8
Codec ID/Info : UTF-8 Plain Text
Duration : 1 h 55 min
Bit rate : 51 b/s
Count of elements : 681
Stream size : 43.3 KiB (0%)
Title : Thai
Language : Thai
Default : No
Forced : No

Text #29

ID : 31
Format : UTF-8
Codec ID : S_TEXT/UTF8
Codec ID/Info : UTF-8 Plain Text
Duration : 1 h 55 min
Bit rate : 19 b/s
Count of elements : 661
Stream size : 16.7 KiB (0%)
Title : Turkish
Language : Turkish
Default : No
Forced : No

Text #30

ID : 32
Format : UTF-8
Codec ID : S_TEXT/UTF8
Codec ID/Info : UTF-8 Plain Text
Duration : 1 h 55 min
Bit rate : 28 b/s
Count of elements : 674
Stream size : 24.3 KiB (0%)
Title : Vietnamese
Language : Vietnamese
Default : No
Forced : No