General

Unique ID : 133164819592185698493622742501218416640 (0x642E9C8208899648FF1FD130587D7800)
Complete name : /home/30nama/movies/e/Extraction_2020_720p_WEB-DL_GalaxyRG_30NAMA.mkv
Format : Matroska
Format version : Version 4
File size : 796 MiB
Duration : 1 h 57 min
Overall bit rate : 948 kb/s
Movie name : GalaxyRG - Extraction.2020.720p.NF.WEBRip.800MB.x264-GalaxyR
Writing application : Lavf58.20.100
Writing library : Lavf58.20.100
Comment : GalaxyRG - Extraction.2020.720p.NF.WEBRip.800MB.x264-GalaxyR
ErrorDetectionType : Per level 1

Video

ID : 1
Format : AVC
Format/Info : Advanced Video Codec
Format profile : High@L3.1
Format settings : CABAC / 4 Ref Frames
Format settings, CABAC : Yes
Format settings, ReFrames : 4 frames
Codec ID : V_MPEG4/ISO/AVC
Duration : 1 h 57 min
Bit rate : 4 799 kb/s
Nominal bit rate : 849 kb/s
Width : 1 280 pixels
Height : 720 pixels
Display aspect ratio : 16:9
Frame rate mode : Variable
Frame rate : 24.000 FPS
Color space : YUV
Chroma subsampling : 4:2:0
Bit depth : 8 bits
Scan type : Progressive
Bits/(Pixel*Frame) : 0.217
Stream size : 3.94 GiB
Title : GalaxyRG - Extraction.2020.720p.NF.WEBRip.800MB.x264-GalaxyR
Writing library : x264 core 157
Encoding settings : cabac=1 / ref=2 / deblock=1:0:0 / analyse=0x3:0x113 / me=hex / subme=4 / psy=1 / psy_rd=1.00:0.00 / mixed_ref=0 / me_range=16 / chroma_me=1 / trellis=1 / 8x8dct=1 / cqm=0 / deadzone=21,11 / fast_pskip=1 / chroma_qp_offset=0 / threads=12 / lookahead_threads=3 / sliced_threads=0 / nr=0 / decimate=1 / interlaced=0 / bluray_compat=0 / constrained_intra=0 / bframes=3 / b_pyramid=2 / b_adapt=1 / b_bias=0 / direct=1 / weightb=1 / open_gop=0 / weightp=1 / keyint=250 / keyint_min=24 / scenecut=40 / intra_refresh=0 / rc_lookahead=20 / rc=2pass / mbtree=1 / bitrate=849 / ratetol=1.0 / qcomp=0.60 / qpmin=0 / qpmax=69 / qpstep=4 / cplxblur=20.0 / qblur=0.5 / ip_ratio=1.40 / aq=1:1.00
Default : Yes
Forced : No

Audio

ID : 2
Format : AAC LC
Format/Info : Advanced Audio Codec Low Complexity
Codec ID : A_AAC-2
Duration : 1 h 57 min
Bit rate : 768 kb/s
Channel(s) : 2 channels
Channel layout : L R
Sampling rate : 48.0 kHz
Frame rate : 46.875 FPS (1024 SPF)
Compression mode : Lossy
Stream size : 645 MiB (81%)
Title : GalaxyRG - Extraction.2020.720p.NF.WEBRip.800MB.x264-GalaxyR
Writing library : Lavc58.35.100 aac
Language : English
Default : Yes
Forced : No

Text

ID : 3
Format : UTF-8
Codec ID : S_TEXT/UTF8
Codec ID/Info : UTF-8 Plain Text
Duration : 1 h 40 min
Bit rate : 34 b/s
Count of elements : 925
Stream size : 24.9 KiB (0%)
Title : GalaxyRG - Extraction.2020.720p.NF.WEBRip.800MB.x264-GalaxyR
Language : English
Default : Yes
Forced : No