General

Complete name : /home/30nama/movies/f/Female_Jungle_1955_DVDRip_30NAMA.avi
Format : AVI
Format/Info : Audio Video Interleave
File size : 700 MiB
Duration : 1 h 11 min
Overall bit rate mode : Variable
Overall bit rate : 1 375 kb/s
Writing application : VirtualDubMod 1.5.4.1 (build 2178/release)
Writing library : VirtualDubMod build 2178/release

Video

ID : 0
Format : MPEG-4 Visual
Format profile : Advanced Simple@L5
Format settings : BVOP1 / Custom Matrix
Format settings, BVOP : 1
Format settings, QPel : No
Format settings, GMC : No warppoints
Format settings, Matrix : Custom
Codec ID : XVID
Codec ID/Hint : XviD
Duration : 1 h 11 min
Bit rate : 1 262 kb/s
Width : 640 pixels
Height : 480 pixels
Display aspect ratio : 4:3
Frame rate : 25.000 FPS
Color space : YUV
Chroma subsampling : 4:2:0
Bit depth : 8 bits
Scan type : Progressive
Compression mode : Lossy
Bits/(Pixel*Frame) : 0.164
Stream size : 642 MiB (92%)
Writing library : XviD 1.2.0SMP (UTC 2006-01-08)

Audio

ID : 1
Format : MPEG Audio
Format version : Version 1
Format profile : Layer 3
Format settings : Joint stereo / MS Stereo
Codec ID : 55
Codec ID/Hint : MP3
Duration : 1 h 10 min
Bit rate mode : Variable
Bit rate : 101 kb/s
Nominal bit rate : 128 kb/s
Channel(s) : 2 channels
Sampling rate : 48.0 kHz
Frame rate : 41.667 FPS (1152 SPF)
Compression mode : Lossy
Delay relative to video : 312 ms
Stream size : 51.2 MiB (7%)
Alignment : Split accross interleaves
Interleave, duration : 24 ms (0.61 video frame)
Interleave, preload duration : 1347 ms
Writing library : LAME3.97b
Encoding settings : -m j -V 4 -q 2 -lowpass 17 --abr 128