General

Unique ID : 273741877303274302174286493315577369320 (0xCDF0C49205922E48ABA44F9BA23B52E8)
Complete name : /movies/g/Godzilla_King_of_the_Monsters_2019_1080p_BluRay_AdiT_30NAMA.mkv
Format : Matroska
Format version : Version 4
File size : 7.00 GiB
Duration : 2 h 11 min
Overall bit rate : 7 609 kb/s
Movie name : Godzilla King of the Monsters (2019) 1080p Bluray AC3 x264 Commentary- AdiT
Encoded date : UTC 2019-08-19 11:17:20
Writing application : mkvmerge v36.0.0 ('Is That Jazz?') 64-bit
Writing library : libebml v1.3.9 + libmatroska v1.5.2

Video

ID : 1
Format : AVC
Format/Info : Advanced Video Codec
Format profile : High@L4.1
Format settings : CABAC / 5 Ref Frames
Format settings, CABAC : Yes
Format settings, ReFrames : 5 frames
Codec ID : V_MPEG4/ISO/AVC
Duration : 2 h 11 min
Bit rate : 6 742 kb/s
Width : 1 920 pixels
Height : 800 pixels
Display aspect ratio : 2.40:1
Frame rate mode : Constant
Frame rate : 23.976 (24000/1001) FPS
Color space : YUV
Chroma subsampling : 4:2:0
Bit depth : 8 bits
Scan type : Progressive
Bits/(Pixel*Frame) : 0.183
Stream size : 6.20 GiB (89%)
Writing library : x264 core 157 r2935 545de2f
Encoding settings : cabac=1 / ref=5 / deblock=1:-2:-2 / analyse=0x3:0x133 / me=umh / subme=10 / psy=1 / psy_rd=1.00:0.05 / mixed_ref=1 / me_range=48 / chroma_me=1 / trellis=2 / 8x8dct=1 / cqm=0 / deadzone=21,11 / fast_pskip=0 / chroma_qp_offset=-3 / threads=18 / lookahead_threads=2 / sliced_threads=0 / nr=0 / decimate=0 / interlaced=0 / bluray_compat=0 / constrained_intra=0 / bframes=5 / b_pyramid=2 / b_adapt=2 / b_bias=0 / direct=1 / weightb=0 / open_gop=0 / weightp=2 / keyint=240 / keyint_min=23 / scenecut=40 / intra_refresh=0 / rc_lookahead=120 / rc=crf / mbtree=0 / crf=22.3 / qcomp=0.55 / qpmin=0 / qpmax=69 / qpstep=4 / vbv_maxrate=32000 / vbv_bufsize=38000 / crf_max=0.0 / nal_hrd=none / filler=0 / ip_ratio=1.30 / pb_ratio=1.20 / aq=3:0.80
Language : English
Default : Yes
Forced : No
Color range : Limited
Color primaries : BT.709
Transfer characteristics : BT.709
Matrix coefficients : BT.709

Audio #1

ID : 2
Format : AC-3
Format/Info : Audio Coding 3
Commercial name : Dolby Digital
Codec ID : A_AC3
Duration : 2 h 11 min
Bit rate mode : Constant
Bit rate : 640 kb/s
Channel(s) : 6 channels
Channel layout : L R C LFE Ls Rs
Sampling rate : 48.0 kHz
Frame rate : 31.250 FPS (1536 SPF)
Bit depth : 16 bits
Compression mode : Lossy
Stream size : 603 MiB (8%)
Language : English
Service kind : Complete Main
Default : Yes
Forced : No

Audio #2

ID : 3
Format : AC-3
Format/Info : Audio Coding 3
Commercial name : Dolby Digital
Codec ID : A_AC3
Duration : 2 h 11 min
Bit rate mode : Constant
Bit rate : 192 kb/s
Channel(s) : 2 channels
Channel layout : L R
Sampling rate : 48.0 kHz
Frame rate : 31.250 FPS (1536 SPF)
Bit depth : 16 bits
Compression mode : Lossy
Stream size : 181 MiB (3%)
Title : Commentary by Michael Dougherty/Zach Shields/O'Shea Jackson Jr.
Language : English
Service kind : Complete Main
Default : No
Forced : No

Text #1

ID : 4
Format : UTF-8
Codec ID : S_TEXT/UTF8
Codec ID/Info : UTF-8 Plain Text
Duration : 31 s 700 ms
Bit rate : 15 b/s
Count of elements : 1
Stream size : 61.0 Bytes (0%)
Language : English
Default : Yes
Forced : Yes

Text #2

ID : 5
Format : PGS
Codec ID : S_HDMV/PGS
Codec ID/Info : Picture based subtitle format used on BDs/HD-DVDs
Duration : 2 h 11 min
Bit rate : 33.0 kb/s
Count of elements : 3322
Stream size : 31.0 MiB (0%)
Language : English
Default : No
Forced : No

Menu

00:00:00.000 : en:Chapter 01
00:10:53.903 : en:Chapter 02
00:18:06.836 : en:Chapter 03
00:30:27.325 : en:Chapter 04
00:45:18.633 : en:Chapter 05
00:54:11.039 : en:Chapter 06
01:05:41.646 : en:Chapter 07
01:09:31.584 : en:Chapter 08
01:19:31.308 : en:Chapter 09
01:30:06.234 : en:Chapter 10
01:38:36.869 : en:Chapter 11
01:49:58.884 : en:Chapter 12
01:59:28.828 : en:Chapter 13