General

Unique ID : 193240827233163328676847600670053369701 (0x9160D45E5955D593C2026B263DFA0765)
Complete name : /movies/g/Godzilla_King_of_the_Monsters_2019_1080p_x265_BrRip_6CH_PSA_30NAMA.mkv
Format : Matroska
Format version : Version 4
File size : 1.79 GiB
Duration : 2 h 11 min
Overall bit rate : 1 945 kb/s
Movie name : PSArips.com | Godzilla.King.of.the.Monsters.2019.1080p.BrRip.6CH.x265.HEVC-PSA
Encoded date : UTC 2019-08-16 12:47:00
Writing application : mkvmerge v36.0.0 ('Is That Jazz?') 64-bit
Writing library : libebml v1.3.9 + libmatroska v1.5.2

Video

ID : 1
Format : HEVC
Format/Info : High Efficiency Video Coding
Format profile : Main@L4@Main
Codec ID : V_MPEGH/ISO/HEVC
Duration : 2 h 11 min
Bit rate : 1 733 kb/s
Width : 1 920 pixels
Height : 800 pixels
Display aspect ratio : 2.40:1
Frame rate mode : Constant
Frame rate : 23.976 (24000/1001) FPS
Color space : YUV
Chroma subsampling : 4:2:0
Bit depth : 8 bits
Bits/(Pixel*Frame) : 0.047
Stream size : 1.59 GiB (89%)
Default : Yes
Forced : No

Audio

ID : 2
Format : AAC LC SBR
Format/Info : Advanced Audio Codec Low Complexity with Spectral Band Replication
Commercial name : HE-AAC
Format settings : Explicit
Codec ID : A_AAC-2
Duration : 2 h 11 min
Bit rate : 210 kb/s
Channel(s) : 6 channels
Channel layout : C L R Ls Rs LFE
Sampling rate : 48.0 kHz
Frame rate : 23.438 FPS (2048 SPF)
Compression mode : Lossy
Delay relative to video : 23 ms
Stream size : 198 MiB (11%)
Language : English
Default : Yes
Forced : No

Text #1

ID : 3
Format : UTF-8
Codec ID : S_TEXT/UTF8
Codec ID/Info : UTF-8 Plain Text
Duration : 2 h 10 min
Bit rate : 44 b/s
Count of elements : 1310
Stream size : 42.6 KiB (0%)
Language : English
Default : Yes
Forced : No

Text #2

ID : 4
Format : UTF-8
Codec ID : S_TEXT/UTF8
Codec ID/Info : UTF-8 Plain Text
Duration : 2 h 11 min
Bit rate : 53 b/s
Count of elements : 1661
Stream size : 51.4 KiB (0%)
Title : SDH
Language : English
Default : No
Forced : No