General

Unique ID : 243927316772800254803071980319523284379 (0xB782B13EAE2D56286B40AA60D16D259B)
Complete name : /movies/g/Godzilla_King_of_the_Monsters_2019_10bit_1080p_x265_BluRay_MkvCage_30NAMA.mkv
Format : Matroska
Format version : Version 4
File size : 2.80 GiB
Duration : 2 h 11 min
Overall bit rate : 3 046 kb/s
Movie name : Godzilla.King.of.the.Monsters.2019.1080p.BluRay.10bit.HEVC.6CH-MkvCage.com
Encoded date : UTC 2019-08-18 19:46:46
Writing application : mkvmerge v35.0.0 ('All The Love In The World') 64-bit
Writing library : libebml v1.3.9 + libmatroska v1.5.2
Cover : Yes
Attachments : cover.jpg

Video

ID : 1
Format : HEVC
Format/Info : High Efficiency Video Coding
Format profile : Main 10@L4@Main
Codec ID : V_MPEGH/ISO/HEVC
Duration : 2 h 11 min
Bit rate : 2 788 kb/s
Width : 1 920 pixels
Height : 800 pixels
Display aspect ratio : 2.40:1
Frame rate mode : Constant
Frame rate : 23.976 (24000/1001) FPS
Color space : YUV
Chroma subsampling : 4:2:0
Bit depth : 10 bits
Bits/(Pixel*Frame) : 0.076
Stream size : 2.56 GiB (92%)
Default : Yes
Forced : No

Audio

ID : 2
Format : AAC LC SBR
Format/Info : Advanced Audio Codec Low Complexity with Spectral Band Replication
Commercial name : HE-AAC
Format settings : Explicit
Codec ID : A_AAC-2
Duration : 2 h 11 min
Bit rate : 256 kb/s
Channel(s) : 6 channels
Channel layout : C L R Ls Rs LFE
Sampling rate : 48.0 kHz
Frame rate : 23.438 FPS (2048 SPF)
Compression mode : Lossy
Stream size : 241 MiB (8%)
Language : English
Default : Yes
Forced : No

Text #1

ID : 3
Format : UTF-8
Codec ID : S_TEXT/UTF8
Codec ID/Info : UTF-8 Plain Text
Duration : 2 h 11 min
Bit rate : 53 b/s
Count of elements : 1857
Stream size : 51.7 KiB (0%)
Title : HI
Language : English
Default : Yes
Forced : No

Text #2

ID : 4
Format : UTF-8
Codec ID : S_TEXT/UTF8
Codec ID/Info : UTF-8 Plain Text
Duration : 2 h 10 min
Bit rate : 44 b/s
Count of elements : 1482
Stream size : 42.7 KiB (0%)
Language : English
Default : No
Forced : No

Menu

00:00:00.000 : en:Chapter 1
00:10:53.903 : en:Chapter 2
00:18:06.836 : en:Chapter 3
00:30:27.325 : en:Chapter 4
00:45:18.633 : en:Chapter 5
00:54:11.039 : en:Chapter 6
01:05:41.646 : en:Chapter 7
01:09:31.584 : en:Chapter 8
01:19:31.308 : en:Chapter 9
01:30:06.234 : en:Chapter 10
01:38:36.869 : en:Chapter 11
01:49:58.884 : en:Chapter 12
01:59:28.828 : en:Chapter 13