General

Unique ID : 265024838149932602445382028688727201147 (0xC761ED5BAA04449370952887A6ABD57B)
Complete name : /movies/g/Godzilla_King_of_the_Monsters_2019_10bit_1080p_x265_BluRay_Tigole_30NAMA.mkv
Format : Matroska
Format version : Version 4
File size : 6.16 GiB
Duration : 2 h 11 min
Overall bit rate : 6 698 kb/s
Movie name : Godzilla: King of the Monsters
Encoded date : UTC 2019-08-19 16:31:09
Writing application : mkvmerge v32.0.0 ('Astral Progressions') 64-bit
Writing library : libebml v1.3.7 + libmatroska v1.5.0

Video

ID : 1
Format : HEVC
Format/Info : High Efficiency Video Coding
Format profile : Main 10@L4@Main
Codec ID : V_MPEGH/ISO/HEVC
Duration : 2 h 11 min
Bit rate : 5 997 kb/s
Width : 1 920 pixels
Height : 800 pixels
Display aspect ratio : 2.40:1
Frame rate mode : Constant
Frame rate : 23.976 (24000/1001) FPS
Color space : YUV
Chroma subsampling : 4:2:0
Bit depth : 10 bits
Bits/(Pixel*Frame) : 0.163
Stream size : 5.52 GiB (90%)
Writing library : x265 3.0_Au+18-768ab38fd5fd:[Windows][GCC 8.3.0][64 bit] 10bit
Encoding settings : cpuid=1111039 / frame-threads=3 / numa-pools=8 / wpp / no-pmode / no-pme / no-psnr / no-ssim / log-level=2 / input-csp=1 / input-res=1920x800 / interlace=0 / total-frames=189480 / level-idc=0 / high-tier=1 / uhd-bd=0 / ref=4 / no-allow-non-conformance / no-repeat-headers / annexb / no-aud / no-hrd / info / hash=0 / no-temporal-layers / open-gop / min-keyint=23 / keyint=250 / gop-lookahead=0 / bframes=4 / b-adapt=2 / b-pyramid / bframe-bias=0 / rc-lookahead=25 / lookahead-slices=4 / scenecut=40 / radl=0 / no-splice / no-intra-refresh / ctu=64 / min-cu-size=8 / rect / no-amp / max-tu-size=32 / tu-inter-depth=1 / tu-intra-depth=1 / limit-tu=0 / rdoq-level=2 / dynamic-rd=0.00 / no-ssim-rd / signhide / no-tskip / nr-intra=0 / nr-inter=0 / no-constrained-intra / strong-intra-smoothing / max-merge=3 / limit-refs=3 / limit-modes / me=3 / subme=3 / merange=57 / temporal-mvp / weightp / no-weightb / no-analyze-src-pics / deblock=0:0 / no-sao / no-sao-non-deblock / rd=4 / no-early-skip / rskip / no-fast-intra / no-tskip-fast / no-cu-lossless / no-b-intra / no-splitrd-skip / rdpenalty=0 / psy-rd=2.00 / psy-rdoq=1.00 / no-rd-refine / no-lossless / cbqpoffs=0 / crqpoffs=0 / rc=abr / bitrate=6000 / qcomp=0.60 / qpstep=4 / stats-write=0 / stats-read=2 / cplxblur=20.0 / qblur=0.5 / ipratio=1.40 / pbratio=1.30 / aq-mode=3 / aq-strength=1.00 / cutree / zone-count=0 / no-strict-cbr / qg-size=32 / no-rc-grain / qpmax=69 / qpmin=0 / no-const-vbv / sar=0 / overscan=0 / videoformat=5 / range=0 / colorprim=2 / transfer=2 / colormatrix=2 / chromaloc=0 / display-window=0 / max-cll=0,0 / min-luma=0 / max-luma=1023 / log2-max-poc-lsb=8 / vui-timing-info / vui-hrd-info / slices=1 / no-opt-qp-pps / no-opt-ref-list-length-pps / multi-pass-opt-rps / scenecut-bias=0.05 / no-opt-cu-delta-qp / aq-motion / no-hdr / no-hdr-opt / no-dhdr10-opt / no-idr-recovery-sei / analysis-reuse-level=5 / scale-factor=0 / refine-intra=0 / refine-inter=0 / refine-mv=0 / refine-ctu-distortion=0 / no-limit-sao / ctu-info=0 / no-lowpass-dct / refine-analysis-type=0 / copy-pic=1 / max-ausize-factor=1.0 / no-dynamic-refine / no-single-sei / no-hevc-aq / no-svt / qp-adaptation-range=1.00
Default : Yes
Forced : No

Audio #1

ID : 2
Format : AAC LC
Format/Info : Advanced Audio Codec Low Complexity
Codec ID : A_AAC-2
Duration : 2 h 11 min
Bit rate : 613 kb/s
Channel(s) : 8 channels
Channel layout : C L R Ls Rs Rls Rb LFE
Sampling rate : 48.0 kHz
Frame rate : 46.875 FPS (1024 SPF)
Compression mode : Lossy
Delay relative to video : 20 ms
Stream size : 578 MiB (9%)
Language : English
Default : Yes
Forced : No

Audio #2

ID : 3
Format : AAC LC SBR
Format/Info : Advanced Audio Codec Low Complexity with Spectral Band Replication
Commercial name : HE-AAC
Format settings : Explicit
Codec ID : A_AAC-2
Duration : 2 h 11 min
Bit rate : 66.2 kb/s
Channel(s) : 2 channels
Channel layout : L R
Sampling rate : 48.0 kHz
Frame rate : 23.438 FPS (2048 SPF)
Compression mode : Lossy
Delay relative to video : 40 ms
Stream size : 62.1 MiB (1%)
Title : Commentary
Language : English
Default : No
Forced : No

Text #1

ID : 4
Format : VobSub
Muxing mode : zlib
Codec ID : S_VOBSUB
Codec ID/Info : Picture based subtitle format used on DVDs
Duration : 2 h 11 min
Bit rate : 9 069 b/s
Count of elements : 1661
Stream size : 8.52 MiB (0%)
Language : English
Default : No
Forced : No

Text #2

ID : 5
Format : VobSub
Muxing mode : zlib
Codec ID : S_VOBSUB
Codec ID/Info : Picture based subtitle format used on DVDs
Duration : 2 h 10 min
Bit rate : 6 532 b/s
Count of elements : 1276
Stream size : 6.11 MiB (0%)
Language : French
Default : No
Forced : No

Text #3

ID : 6
Format : VobSub
Muxing mode : zlib
Codec ID : S_VOBSUB
Codec ID/Info : Picture based subtitle format used on DVDs
Duration : 2 h 10 min
Bit rate : 7 741 b/s
Count of elements : 1391
Stream size : 7.24 MiB (0%)
Language : Portuguese
Default : No
Forced : No

Text #4

ID : 7
Format : VobSub
Muxing mode : zlib
Codec ID : S_VOBSUB
Codec ID/Info : Picture based subtitle format used on DVDs
Duration : 2 h 10 min
Bit rate : 7 625 b/s
Count of elements : 1392
Stream size : 7.13 MiB (0%)
Language : Spanish
Default : No
Forced : No

Menu

00:00:00.000 : en:Chapter 01
00:10:53.903 : en:Chapter 02
00:18:06.502 : en:Chapter 03
00:30:26.991 : en:Chapter 04
00:45:18.590 : en:Chapter 05
00:54:11.039 : en:Chapter 06
01:05:41.646 : en:Chapter 07
01:09:31.584 : en:Chapter 08
01:19:31.099 : en:Chapter 09
01:30:05.983 : en:Chapter 10
01:38:36.785 : en:Chapter 11
01:49:58.883 : en:Chapter 12
01:59:28.828 : en:Chapter 13