General

Unique ID : 19804459415653554473682514020642469190 (0xEE6333C8341E23AF722507F4DA23546)
Complete name : /home/30nama/movies/h/Hey_DJ_2003_DIRECTORS_CUT_1080p_WEB-DL_AC3_TEPES_30NAMA.mkv
Format : Matroska
Format version : Version 4
File size : 5.38 GiB
Duration : 1 h 22 min
Overall bit rate : 9 299 kb/s
Encoded date : UTC 2020-09-10 13:09:11
Writing application : mkvmerge v47.0.0 ('Black Flag') 64-bit
Writing library : libebml v1.3.10 + libmatroska v1.5.2

Video

ID : 1
Format : AVC
Format/Info : Advanced Video Codec
Format profile : High@L4
Format settings : CABAC / 4 Ref Frames
Format settings, CABAC : Yes
Format settings, ReFrames : 4 frames
Codec ID : V_MPEG4/ISO/AVC
Duration : 1 h 22 min
Bit rate mode : Constant
Bit rate : 9 072 kb/s
Nominal bit rate : 10 000 kb/s
Width : 1 440 pixels
Height : 1 080 pixels
Display aspect ratio : 4:3
Frame rate mode : Constant
Frame rate : 29.970 (30000/1001) FPS
Color space : YUV
Chroma subsampling : 4:2:0
Bit depth : 8 bits
Scan type : Progressive
Bits/(Pixel*Frame) : 0.195
Stream size : 5.25 GiB (98%)
Default : Yes
Forced : No
Color range : Limited
Color primaries : BT.709
Transfer characteristics : BT.709
Matrix coefficients : BT.709

Audio

ID : 2
Format : E-AC-3
Format/Info : Enhanced AC-3
Commercial name : Dolby Digital Plus
Codec ID : A_EAC3
Duration : 1 h 22 min
Bit rate mode : Constant
Bit rate : 224 kb/s
Channel(s) : 2 channels
Channel layout : L R
Sampling rate : 48.0 kHz
Frame rate : 31.250 FPS (1536 SPF)
Compression mode : Lossy
Stream size : 133 MiB (2%)
Language : English
Service kind : Complete Main
Default : Yes
Forced : No

Text #1

ID : 3
Format : UTF-8
Codec ID : S_TEXT/UTF8
Codec ID/Info : UTF-8 Plain Text
Duration : 1 h 18 min
Bit rate : 44 b/s
Count of elements : 1016
Stream size : 25.9 KiB (0%)
Language : English
Default : No
Forced : No

Text #2

ID : 4
Format : UTF-8
Codec ID : S_TEXT/UTF8
Codec ID/Info : UTF-8 Plain Text
Duration : 1 h 22 min
Bit rate : 63 b/s
Count of elements : 1493
Stream size : 38.5 KiB (0%)
Title : SDH
Language : English
Default : No
Forced : No