General

Unique ID : 152024747843723741835408444253724072813 (0x725EE6C3332EFA5B253F40414911DB6D)
Complete name : /movies/i/Ikiru_1952_1080p_BluRay_Full_HD_FLAC_PTer_30NAMA.mkv
Format : Matroska
Format version : Version 4
File size : 18.8 GiB
Duration : 2 h 23 min
Overall bit rate mode : Variable
Overall bit rate : 18.8 Mb/s
Movie name : Ikiru [1952] 1080p Bluray FLAC 1.0 x264 - PTer
Encoded date : UTC 2019-10-15 13:19:57
Writing application : mkvmerge v37.0.0 ('Leave It') 64-bit
Writing library : libebml v1.3.9 + libmatroska v1.5.2

Video

ID : 1
Format : AVC
Format/Info : Advanced Video Codec
Format profile : High@L4.1
Format settings : CABAC / 5 Ref Frames
Format settings, CABAC : Yes
Format settings, ReFrames : 5 frames
Codec ID : V_MPEG4/ISO/AVC
Duration : 2 h 23 min
Bit rate : 18.5 Mb/s
Width : 1 480 pixels
Height : 1 080 pixels
Display aspect ratio : 1.370
Frame rate mode : Constant
Frame rate : 23.976 (24000/1001) FPS
Color space : YUV
Chroma subsampling : 4:2:0
Bit depth : 8 bits
Scan type : Progressive
Bits/(Pixel*Frame) : 0.483
Stream size : 18.5 GiB (99%)
Title : Video
Writing library : x264 core 158 r2984+47 456d10a t_mod_New [0-bit@all X86_64]
Encoding settings : cabac=1 / ref=5 / deblock=1:-3:-3 / analyse=0x3:0x133 / me=umh / subme=11 / psy=1 / fade_compensate=0.00 / psy_rd=1.05:0.00 / mixed_ref=1 / me_range=32 / chroma_me=1 / trellis=2 / 8x8dct=1 / cqm=0 / deadzone=21,11 / fast_pskip=0 / chroma_qp_offset=-2 / threads=6 / lookahead_threads=1 / sliced_threads=0 / nr=0 / decimate=0 / interlaced=0 / bluray_compat=0 / constrained_intra=0 / fgo=0 / bframes=11 / b_pyramid=2 / b_adapt=2 / b_bias=0 / direct=3 / weightb=1 / open_gop=0 / weightp=2 / keyint=250 / keyint_min=23 / scenecut=40 / intra_refresh=0 / rc_lookahead=250 / rc=2pass / mbtree=0 / bitrate=18500 / ratetol=1.0 / qcomp=0.60 / qpmin=0:0:0 / qpmax=69:69:69 / qpstep=4 / cplxblur=20.0 / qblur=0.5 / vbv_maxrate=62500 / vbv_bufsize=78125 / nal_hrd=none / filler=0 / ip_ratio=1.30 / pb_ratio=1.20 / aq=3:0.70 / aq-sensitivity=10.00 / aq-factor=1.00:1.00:1.00 / aq2=0 / aq3=0
Language : Japanese
Default : Yes
Forced : No
Color range : Limited
Color primaries : BT.709
Matrix coefficients : BT.709

Audio #1

ID : 2
Format : FLAC
Format/Info : Free Lossless Audio Codec
Codec ID : A_FLAC
Duration : 2 h 23 min
Bit rate mode : Variable
Bit rate : 189 kb/s
Channel(s) : 1 channel
Channel layout : C
Sampling rate : 48.0 kHz
Frame rate : 11.719 FPS (4096 SPF)
Bit depth : 16 bits
Compression mode : Lossless
Stream size : 193 MiB (1%)
Title : Audio
Writing library : libFLAC 1.2.1 (UTC 2007-09-17)
Language : Japanese
Default : Yes
Forced : No

Audio #2

ID : 3
Format : AAC LC
Format/Info : Advanced Audio Codec Low Complexity
Codec ID : A_AAC-2
Duration : 2 h 23 min
Bit rate : 80.0 kb/s
Channel(s) : 1 channel
Channel layout : C
Sampling rate : 48.0 kHz
Frame rate : 46.875 FPS (1024 SPF)
Compression mode : Lossy
Delay relative to video : 9 ms
Stream size : 81.9 MiB (0%)
Title : Commentary by Stephen Prince
Language : English
Default : No
Forced : No

Text #1

ID : 4
Format : UTF-8
Codec ID : S_TEXT/UTF8
Codec ID/Info : UTF-8 Plain Text
Duration : 2 h 22 min
Bit rate : 37 b/s
Count of elements : 1315
Stream size : 39.4 KiB (0%)
Title : English
Language : English
Default : Yes
Forced : No

Text #2

ID : 5
Format : UTF-8
Codec ID : S_TEXT/UTF8
Codec ID/Info : UTF-8 Plain Text
Duration : 2 h 21 min
Bit rate : 26 b/s
Count of elements : 1289
Stream size : 27.0 KiB (0%)
Title : Simplified Chinese
Language : Chinese
Default : No
Forced : No

Text #3

ID : 6
Format : UTF-8
Codec ID : S_TEXT/UTF8
Codec ID/Info : UTF-8 Plain Text
Duration : 2 h 21 min
Bit rate : 26 b/s
Count of elements : 1289
Stream size : 27.0 KiB (0%)
Title : Traditional Chinese
Language : Chinese
Default : No
Forced : No

Text #4

ID : 7
Format : UTF-8
Codec ID : S_TEXT/UTF8
Codec ID/Info : UTF-8 Plain Text
Duration : 2 h 21 min
Bit rate : 84 b/s
Count of elements : 2045
Stream size : 87.0 KiB (0%)
Title : Simplified Chinese @ Commentary by Stephen Prince
Language : Chinese
Default : No
Forced : No

Text #5

ID : 8
Format : UTF-8
Codec ID : S_TEXT/UTF8
Codec ID/Info : UTF-8 Plain Text
Duration : 2 h 21 min
Bit rate : 84 b/s
Count of elements : 2045
Stream size : 87.0 KiB (0%)
Title : Traditional Chinese @ Commentary by Stephen Prince
Language : Chinese
Default : No
Forced : No

Menu

00:00:00.000 : en:Chapter 01
00:02:29.358 : en:Chapter 02
00:06:40.108 : en:Chapter 03
00:10:32.257 : en:Chapter 04
00:12:02.931 : en:Chapter 05
00:15:14.747 : en:Chapter 06
00:18:23.269 : en:Chapter 07
00:22:28.556 : en:Chapter 08
00:30:29.661 : en:Chapter 09
00:33:13.241 : en:Chapter 10
00:42:57.074 : en:Chapter 11
00:57:50.092 : en:Chapter 12
01:07:20.411 : en:Chapter 13
01:11:17.940 : en:Chapter 14
01:16:05.144 : en:Chapter 15
01:19:38.732 : en:Chapter 16
01:30:04.566 : en:Chapter 17
01:32:18.783 : en:Chapter 18
01:36:34.872 : en:Chapter 19
01:40:56.968 : en:Chapter 20
01:43:16.440 : en:Chapter 21
02:12:57.011 : en:Chapter 22
02:20:04.646 : en:Chapter 23
02:21:29.106 : en:Chapter 24