General

Unique ID : 208480756631742660410057153685758854514 (0x9CD7EEE65CE3949F9440413AF9EAC572)
Complete name : /movies/i/Ikiru_1952_10bit_720p_x265_BrRip_30nama_30NAMA.mkv
Format : Matroska
Format version : Version 4
File size : 941 MiB
Duration : 2 h 23 min
Overall bit rate : 919 kb/s
Encoded date : UTC 2017-04-09 13:10:29
Writing application : mkvmerge v9.2.0 ('Photograph') 64bit
Writing library : libebml v1.3.3 + libmatroska v1.4.4

Video

ID : 1
Format : HEVC
Format/Info : High Efficiency Video Coding
Format profile : Main 10@L5.1@Main
Codec ID : V_MPEGH/ISO/HEVC
Duration : 2 h 23 min
Bit rate : 851 kb/s
Width : 960 pixels
Height : 720 pixels
Display aspect ratio : 1.371
Original display aspect ratio : 1.370
Frame rate mode : Constant
Frame rate : 23.976 (24000/1001) FPS
Color space : YUV
Chroma subsampling : 4:2:0
Bit depth : 10 bits
Bits/(Pixel*Frame) : 0.051
Stream size : 871 MiB (93%)
Writing library : x265 2.3+9-820f4327ddac:[Windows][GCC 5.3.1][64 bit] 10bit
Encoding settings : cpuid=1173503 / frame-threads=6 / numa-pools=36,36 / wpp / no-pmode / no-pme / no-psnr / no-ssim / log-level=2 / input-csp=1 / input-res=960x720 / interlace=0 / total-frames=205899 / level-idc=51 / high-tier=1 / uhd-bd=0 / ref=3 / no-allow-non-conformance / no-repeat-headers / annexb / no-aud / no-hrd / info / hash=0 / no-temporal-layers / open-gop / min-keyint=23 / keyint=250 / bframes=4 / b-adapt=2 / b-pyramid / bframe-bias=0 / rc-lookahead=20 / lookahead-slices=4 / scenecut=40 / no-intra-refresh / ctu=64 / min-cu-size=8 / no-rect / no-amp / max-tu-size=32 / tu-inter-depth=1 / tu-intra-depth=1 / limit-tu=0 / rdoq-level=0 / dynamic-rd=0.00 / signhide / no-tskip / nr-intra=0 / nr-inter=0 / no-constrained-intra / strong-intra-smoothing / max-merge=2 / limit-refs=3 / no-limit-modes / me=1 / subme=2 / merange=57 / temporal-mvp / weightp / no-weightb / no-analyze-src-pics / deblock=0:0 / sao / no-sao-non-deblock / rd=3 / no-early-skip / rskip / no-fast-intra / no-tskip-fast / no-cu-lossless / no-b-intra / rdpenalty=0 / psy-rd=2.00 / psy-rdoq=0.00 / no-rd-refine / analysis-mode=0 / no-lossless / cbqpoffs=0 / crqpoffs=0 / rc=abr / bitrate=850 / qcomp=0.60 / qpstep=4 / stats-write=0 / stats-read=2 / cplxblur=20.0 / qblur=0.5 / ipratio=1.40 / pbratio=1.30 / aq-mode=1 / aq-strength=1.00 / cutree / zone-count=0 / no-strict-cbr / qg-size=32 / no-rc-grain / qpmax=69 / qpmin=0 / sar=255 / sar-width / : / sar-height=37:36 / overscan=0 / videoformat=5 / range=0 / colorprim=2 / transfer=2 / colormatrix=2 / chromaloc=0 / display-window=0 / max-cll=0,0 / min-luma=0 / max-luma=1023 / log2-max-poc-lsb=8 / vui-timing-info / vui-hrd-info / slices=1 / opt-qp-pps / opt-ref-list-length-pps / no-multi-pass-opt-rps / scenecut-bias=0.05 / no-opt-cu-delta-qp / no-aq-motion / no-hdr / no-hdr-opt
Default : Yes
Forced : No

Audio

ID : 2
Format : AAC LC
Format/Info : Advanced Audio Codec Low Complexity
Codec ID : A_AAC-2
Duration : 2 h 23 min
Bit rate : 66.2 kb/s
Channel(s) : 1 channel
Channel layout : C
Sampling rate : 48.0 kHz
Frame rate : 46.875 FPS (1024 SPF)
Compression mode : Lossy
Delay relative to video : 9 ms
Stream size : 67.6 MiB (7%)
Language : Japanese
Default : Yes
Forced : No

Text

ID : 3
Format : UTF-8
Codec ID : S_TEXT/UTF8
Codec ID/Info : UTF-8 Plain Text
Duration : 2 h 22 min
Bit rate : 37 b/s
Count of elements : 1315
Stream size : 39.4 KiB (0%)
Language : English
Default : No
Forced : No

Menu

00:00:00.000 : en:00:00:00.000
00:02:29.358 : en:00:02:29.358
00:06:40.108 : en:00:06:40.108
00:10:32.257 : en:00:10:32.257
00:12:02.931 : en:00:12:02.931
00:15:14.747 : en:00:15:14.747
00:18:23.269 : en:00:18:23.269
00:22:28.556 : en:00:22:28.556
00:30:29.661 : en:00:30:29.661
00:33:13.241 : en:00:33:13.241
00:42:57.074 : en:00:42:57.074
00:57:50.092 : en:00:57:50.092
01:07:20.411 : en:01:07:20.411
01:11:17.940 : en:01:11:17.940
01:16:05.144 : en:01:16:05.144
01:19:38.732 : en:01:19:38.732
01:30:04.566 : en:01:30:04.566
01:32:18.783 : en:01:32:18.783
01:36:34.872 : en:01:36:34.872
01:40:56.968 : en:01:40:56.968
01:43:16.440 : en:01:43:16.440
02:12:57.011 : en:02:12:57.011
02:20:04.646 : en:02:20:04.646
02:21:29.106 : en:02:21:29.106