General

Unique ID : 214520621189311521742879465021629245558 (0xA1632B36B836B67795BF57C36D0FA876)
Complete name : /movies/i/Ikiru_1952_720p_BrRip_30nama_30NAMA.mkv
Format : Matroska
Format version : Version 4
File size : 1.12 GiB
Duration : 2 h 23 min
Overall bit rate : 1 118 kb/s
Encoded date : UTC 2017-04-09 01:13:46
Writing application : mkvmerge v9.2.0 ('Photograph') 64bit
Writing library : libebml v1.3.3 + libmatroska v1.4.4

Video

ID : 1
Format : AVC
Format/Info : Advanced Video Codec
Format profile : High@L4
Format settings : CABAC / 8 Ref Frames
Format settings, CABAC : Yes
Format settings, ReFrames : 8 frames
Codec ID : V_MPEG4/ISO/AVC
Duration : 2 h 23 min
Bit rate : 1 050 kb/s
Width : 960 pixels
Height : 720 pixels
Display aspect ratio : 1.371
Original display aspect ratio : 1.370
Frame rate mode : Constant
Frame rate : 23.976 (24000/1001) FPS
Color space : YUV
Chroma subsampling : 4:2:0
Bit depth : 8 bits
Scan type : Progressive
Bits/(Pixel*Frame) : 0.063
Stream size : 1.05 GiB (94%)
Writing library : x264 core 148 r2694 3b70645
Encoding settings : cabac=1 / ref=8 / deblock=1:0:0 / analyse=0x3:0x133 / me=umh / subme=9 / psy=1 / psy_rd=1.00:0.00 / mixed_ref=1 / me_range=16 / chroma_me=1 / trellis=2 / 8x8dct=1 / cqm=0 / deadzone=21,11 / fast_pskip=1 / chroma_qp_offset=-2 / threads=22 / lookahead_threads=1 / sliced_threads=0 / nr=0 / decimate=1 / interlaced=0 / bluray_compat=0 / constrained_intra=0 / bframes=3 / b_pyramid=2 / b_adapt=2 / b_bias=0 / direct=3 / weightb=1 / open_gop=0 / weightp=2 / keyint=250 / keyint_min=23 / scenecut=40 / intra_refresh=0 / rc_lookahead=60 / rc=2pass / mbtree=1 / bitrate=1050 / ratetol=1.0 / qcomp=0.60 / qpmin=0 / qpmax=69 / qpstep=4 / cplxblur=20.0 / qblur=0.5 / ip_ratio=1.40 / aq=1:1.00
Default : Yes
Forced : No

Audio

ID : 2
Format : AAC LC
Format/Info : Advanced Audio Codec Low Complexity
Codec ID : A_AAC-2
Duration : 2 h 23 min
Bit rate : 66.2 kb/s
Channel(s) : 1 channel
Channel layout : C
Sampling rate : 48.0 kHz
Frame rate : 46.875 FPS (1024 SPF)
Compression mode : Lossy
Delay relative to video : 9 ms
Stream size : 67.6 MiB (6%)
Language : Japanese
Default : Yes
Forced : No

Text

ID : 3
Format : UTF-8
Codec ID : S_TEXT/UTF8
Codec ID/Info : UTF-8 Plain Text
Duration : 2 h 22 min
Bit rate : 37 b/s
Count of elements : 1315
Stream size : 39.4 KiB (0%)
Language : English
Default : No
Forced : No

Menu

00:00:00.000 : en:00:00:00.000
00:02:29.358 : en:00:02:29.358
00:06:40.108 : en:00:06:40.108
00:10:32.257 : en:00:10:32.257
00:12:02.931 : en:00:12:02.931
00:15:14.747 : en:00:15:14.747
00:18:23.269 : en:00:18:23.269
00:22:28.556 : en:00:22:28.556
00:30:29.661 : en:00:30:29.661
00:33:13.241 : en:00:33:13.241
00:42:57.074 : en:00:42:57.074
00:57:50.092 : en:00:57:50.092
01:07:20.411 : en:01:07:20.411
01:11:17.940 : en:01:11:17.940
01:16:05.144 : en:01:16:05.144
01:19:38.732 : en:01:19:38.732
01:30:04.566 : en:01:30:04.566
01:32:18.783 : en:01:32:18.783
01:36:34.872 : en:01:36:34.872
01:40:56.968 : en:01:40:56.968
01:43:16.440 : en:01:43:16.440
02:12:57.011 : en:02:12:57.011
02:20:04.646 : en:02:20:04.646
02:21:29.106 : en:02:21:29.106