General

Unique ID : 10120751491467247617160457548055412752 (0x79D2F92EDE0D8A8E62BB001D8C38010)
Complete name : /home/30nama/movies/i/Im_Thinking_of_Ending_Things_2020_1080p_WEB-DL_5.1CH_CMRG_30NAMA.mkv
Format : Matroska
Format version : Version 4
File size : 7.49 GiB
Duration : 2 h 14 min
Overall bit rate mode : Variable
Overall bit rate : 7 954 kb/s
Encoded date : UTC 2020-09-04 07:03:17
Writing application : mkvmerge v44.0.0 ('Domino') 64-bit
Writing library : libebml v1.3.10 + libmatroska v1.5.2

Video

ID : 1
Format : AVC
Format/Info : Advanced Video Codec
Format profile : High@L4
Format settings : CABAC / 4 Ref Frames
Format settings, CABAC : Yes
Format settings, ReFrames : 4 frames
Codec ID : V_MPEG4/ISO/AVC
Duration : 2 h 14 min
Bit rate mode : Variable
Bit rate : 7 180 kb/s
Maximum bit rate : 20.0 Mb/s
Width : 1 440 pixels
Height : 1 080 pixels
Display aspect ratio : 4:3
Frame rate mode : Constant
Frame rate : 24.000 FPS
Color space : YUV
Chroma subsampling : 4:2:0
Bit depth : 8 bits
Scan type : Progressive
Bits/(Pixel*Frame) : 0.192
Stream size : 6.76 GiB (90%)
Writing library : x264 core 148 r2722 1b0121b
Encoding settings : cabac=1 / ref=4 / deblock=1:0:0 / analyse=0x3:0x111 / me=umh / subme=10 / psy=1 / psy_rd=1.00:0.00 / mixed_ref=1 / me_range=120 / chroma_me=1 / trellis=2 / 8x8dct=1 / cqm=0 / deadzone=21,11 / fast_pskip=1 / chroma_qp_offset=-2 / threads=8 / lookahead_threads=2 / sliced_threads=0 / nr=0 / decimate=1 / interlaced=0 / bluray_compat=0 / stitchable=1 / constrained_intra=0 / bframes=16 / b_pyramid=2 / b_adapt=2 / b_bias=0 / direct=3 / weightb=1 / open_gop=0 / weightp=2 / keyint=240 / keyint_min=121 / scenecut=0 / intra_refresh=0 / rc_lookahead=240 / rc=crf / mbtree=1 / crf=25.0 / qcomp=0.50 / qpmin=6 / qpmax=51 / qpstep=4 / vbv_maxrate=20000 / vbv_bufsize=25000 / crf_max=0.0 / nal_hrd=vbr / filler=0 / ip_ratio=1.40 / aq=1:0.80
Default : Yes
Forced : No

Audio

ID : 2
Format : E-AC-3 JOC
Format/Info : Enhanced AC-3 with Joint Object Coding
Commercial name : Dolby Digital Plus with Dolby Atmos
Codec ID : A_EAC3
Duration : 2 h 14 min
Bit rate mode : Constant
Bit rate : 768 kb/s
Channel(s) : 6 channels
Channel layout : L R C LFE Ls Rs
Sampling rate : 48.0 kHz
Frame rate : 31.250 FPS (1536 SPF)
Compression mode : Lossy
Stream size : 740 MiB (10%)
Title : English
Language : English
Service kind : Complete Main
Default : Yes
Forced : No
Complexity index : 16
Number of dynamic objects : 15
Bed channel count : 1 channel
Bed channel configuration : LFE

Text #1

ID : 3
Format : UTF-8
Codec ID : S_TEXT/UTF8
Codec ID/Info : UTF-8 Plain Text
Duration : 2 h 13 min
Bit rate : 97 b/s
Count of elements : 2404
Stream size : 95.4 KiB (0%)
Title : English
Language : English
Default : No
Forced : No

Text #2

ID : 4
Format : UTF-8
Codec ID : S_TEXT/UTF8
Codec ID/Info : UTF-8 Plain Text
Duration : 2 h 13 min
Bit rate : 101 b/s
Count of elements : 1866
Stream size : 99.5 KiB (0%)
Title : Arabic
Language : Arabic
Default : No
Forced : No

Text #3

ID : 5
Format : UTF-8
Codec ID : S_TEXT/UTF8
Codec ID/Info : UTF-8 Plain Text
Duration : 2 h 13 min
Bit rate : 63 b/s
Count of elements : 1879
Stream size : 62.0 KiB (0%)
Title : Chinese Simplified
Language : Chinese
Default : No
Forced : No

Text #4

ID : 6
Format : UTF-8
Codec ID : S_TEXT/UTF8
Codec ID/Info : UTF-8 Plain Text
Duration : 2 h 13 min
Bit rate : 62 b/s
Count of elements : 1884
Stream size : 61.3 KiB (0%)
Title : Chinese Traditional
Language : Chinese
Default : No
Forced : No

Text #5

ID : 7
Format : UTF-8
Codec ID : S_TEXT/UTF8
Codec ID/Info : UTF-8 Plain Text
Duration : 2 h 13 min
Bit rate : 61 b/s
Count of elements : 1996
Stream size : 59.9 KiB (0%)
Title : Czech
Language : Czech
Default : No
Forced : No

Text #6

ID : 8
Format : UTF-8
Codec ID : S_TEXT/UTF8
Codec ID/Info : UTF-8 Plain Text
Duration : 2 h 13 min
Bit rate : 59 b/s
Count of elements : 1745
Stream size : 58.0 KiB (0%)
Title : Danish
Language : Danish
Default : No
Forced : No

Text #7

ID : 9
Format : UTF-8
Codec ID : S_TEXT/UTF8
Codec ID/Info : UTF-8 Plain Text
Duration : 2 h 13 min
Bit rate : 56 b/s
Count of elements : 1793
Stream size : 55.2 KiB (0%)
Title : Dutch
Language : Dutch
Default : No
Forced : No

Text #8

ID : 10
Format : UTF-8
Codec ID : S_TEXT/UTF8
Codec ID/Info : UTF-8 Plain Text
Duration : 2 h 13 min
Bit rate : 55 b/s
Count of elements : 1746
Stream size : 54.2 KiB (0%)
Title : Finnish
Language : Finnish
Default : No
Forced : No

Text #9

ID : 11
Format : UTF-8
Codec ID : S_TEXT/UTF8
Codec ID/Info : UTF-8 Plain Text
Duration : 2 h 13 min
Bit rate : 59 b/s
Count of elements : 1821
Stream size : 58.3 KiB (0%)
Title : French
Language : French
Default : No
Forced : No

Text #10

ID : 12
Format : UTF-8
Codec ID : S_TEXT/UTF8
Codec ID/Info : UTF-8 Plain Text
Duration : 2 h 13 min
Bit rate : 61 b/s
Count of elements : 1739
Stream size : 59.8 KiB (0%)
Title : German
Language : German
Default : No
Forced : No

Text #11

ID : 13
Format : UTF-8
Codec ID : S_TEXT/UTF8
Codec ID/Info : UTF-8 Plain Text
Duration : 2 h 13 min
Bit rate : 102 b/s
Count of elements : 1832
Stream size : 100 KiB (0%)
Title : Greek
Language : Greek
Default : No
Forced : No

Text #12

ID : 14
Format : UTF-8
Codec ID : S_TEXT/UTF8
Codec ID/Info : UTF-8 Plain Text
Duration : 2 h 13 min
Bit rate : 94 b/s
Count of elements : 1854
Stream size : 92.2 KiB (0%)
Title : Hebrew
Language : Hebrew
Default : No
Forced : No

Text #13

ID : 15
Format : UTF-8
Codec ID : S_TEXT/UTF8
Codec ID/Info : UTF-8 Plain Text
Duration : 2 h 13 min
Bit rate : 62 b/s
Count of elements : 1831
Stream size : 60.7 KiB (0%)
Title : Hungarian
Language : Hungarian
Default : No
Forced : No

Text #14

ID : 16
Format : UTF-8
Codec ID : S_TEXT/UTF8
Codec ID/Info : UTF-8 Plain Text
Duration : 2 h 13 min
Bit rate : 58 b/s
Count of elements : 1864
Stream size : 57.1 KiB (0%)
Title : Indonesian
Language : Indonesian
Default : No
Forced : No

Text #15

ID : 17
Format : UTF-8
Codec ID : S_TEXT/UTF8
Codec ID/Info : UTF-8 Plain Text
Duration : 2 h 13 min
Bit rate : 59 b/s
Count of elements : 1742
Stream size : 58.6 KiB (0%)
Title : Italian
Language : Italian
Default : No
Forced : No

Text #16

ID : 18
Format : UTF-8
Codec ID : S_TEXT/UTF8
Codec ID/Info : UTF-8 Plain Text
Duration : 2 h 13 min
Bit rate : 58 b/s
Count of elements : 1863
Stream size : 57.3 KiB (0%)
Title : Japanese
Language : Japanese
Default : No
Forced : No

Text #17

ID : 19
Format : UTF-8
Codec ID : S_TEXT/UTF8
Codec ID/Info : UTF-8 Plain Text
Duration : 2 h 13 min
Bit rate : 70 b/s
Count of elements : 1851
Stream size : 69.1 KiB (0%)
Title : Korean
Language : Korean
Default : No
Forced : No

Text #18

ID : 20
Format : UTF-8
Codec ID : S_TEXT/UTF8
Codec ID/Info : UTF-8 Plain Text
Duration : 2 h 13 min
Bit rate : 56 b/s
Count of elements : 1701
Stream size : 55.0 KiB (0%)
Title : Norwegian Bokmal
Language : Norwegian Bokmal
Default : No
Forced : No

Text #19

ID : 21
Format : UTF-8
Codec ID : S_TEXT/UTF8
Codec ID/Info : UTF-8 Plain Text
Duration : 2 h 13 min
Bit rate : 56 b/s
Count of elements : 1817
Stream size : 54.8 KiB (0%)
Title : Polish
Language : Polish
Default : No
Forced : No

Text #20

ID : 22
Format : UTF-8
Codec ID : S_TEXT/UTF8
Codec ID/Info : UTF-8 Plain Text
Duration : 2 h 13 min
Bit rate : 62 b/s
Count of elements : 1787
Stream size : 60.9 KiB (0%)
Title : Portuguese
Language : Portuguese
Default : No
Forced : No

Text #21

ID : 23
Format : UTF-8
Codec ID : S_TEXT/UTF8
Codec ID/Info : UTF-8 Plain Text
Duration : 2 h 13 min
Bit rate : 63 b/s
Count of elements : 1829
Stream size : 62.0 KiB (0%)
Title : Brazilian Portuguese
Language : Portuguese
Default : No
Forced : No

Text #22

ID : 24
Format : UTF-8
Codec ID : S_TEXT/UTF8
Codec ID/Info : UTF-8 Plain Text
Duration : 2 h 13 min
Bit rate : 68 b/s
Count of elements : 1797
Stream size : 67.1 KiB (0%)
Title : Romanian
Language : Romanian
Default : No
Forced : No

Text #23

ID : 25
Format : UTF-8
Codec ID : S_TEXT/UTF8
Codec ID/Info : UTF-8 Plain Text
Duration : 2 h 13 min
Bit rate : 99 b/s
Count of elements : 1878
Stream size : 96.8 KiB (0%)
Title : Russian
Language : Russian
Default : No
Forced : No

Text #24

ID : 26
Format : UTF-8
Codec ID : S_TEXT/UTF8
Codec ID/Info : UTF-8 Plain Text
Duration : 2 h 13 min
Bit rate : 61 b/s
Count of elements : 1848
Stream size : 59.6 KiB (0%)
Title : Spanish
Language : Spanish
Default : No
Forced : No

Text #25

ID : 27
Format : UTF-8
Codec ID : S_TEXT/UTF8
Codec ID/Info : UTF-8 Plain Text
Duration : 2 h 13 min
Bit rate : 60 b/s
Count of elements : 1729
Stream size : 58.9 KiB (0%)
Title : European Spanish
Language : Spanish
Default : No
Forced : No

Text #26

ID : 28
Format : UTF-8
Codec ID : S_TEXT/UTF8
Codec ID/Info : UTF-8 Plain Text
Duration : 2 h 13 min
Bit rate : 62 b/s
Count of elements : 1826
Stream size : 61.0 KiB (0%)
Title : Swedish
Language : Swedish
Default : No
Forced : No

Text #27

ID : 29
Format : UTF-8
Codec ID : S_TEXT/UTF8
Codec ID/Info : UTF-8 Plain Text
Duration : 2 h 13 min
Bit rate : 159 b/s
Count of elements : 1878
Stream size : 156 KiB (0%)
Title : Thai
Language : Thai
Default : No
Forced : No

Text #28

ID : 30
Format : UTF-8
Codec ID : S_TEXT/UTF8
Codec ID/Info : UTF-8 Plain Text
Duration : 2 h 13 min
Bit rate : 60 b/s
Count of elements : 1848
Stream size : 58.7 KiB (0%)
Title : Turkish
Language : Turkish
Default : No
Forced : No

Text #29

ID : 31
Format : UTF-8
Codec ID : S_TEXT/UTF8
Codec ID/Info : UTF-8 Plain Text
Duration : 2 h 13 min
Bit rate : 87 b/s
Count of elements : 1743
Stream size : 85.6 KiB (0%)
Title : Vietnamese
Language : Vietnamese
Default : No
Forced : No