General

Unique ID : 327408244163524248612989786821482362686 (0xF65088BDE1EF3C6DA492B0DCD3E1B73E)
Complete name : /home/30nama/movies/i/Im_Thinking_of_Ending_Things_2020_10bit_1080p_x265_WEB-DL_6CH_PSA_30NAMA.mkv
Format : Matroska
Format version : Version 4
File size : 1.37 GiB
Duration : 2 h 14 min
Overall bit rate : 1 453 kb/s
Movie name : PSArips.com | I'm.Thinking.of.Ending.Things.2020.1080p.10bit.WEBRip.6CH.x265.HEVC-PSA
Encoded date : UTC 2020-09-05 06:58:36
Writing application : mkvmerge v49.0.0 ('Sick Of Losing Soulmates') 64-bit
Writing library : libebml v1.4.0 + libmatroska v1.6.1

Video

ID : 1
Format : HEVC
Format/Info : High Efficiency Video Coding
Format profile : Main 10@L4@Main
Codec ID : V_MPEGH/ISO/HEVC
Duration : 2 h 14 min
Bit rate : 1 252 kb/s
Width : 1 440 pixels
Height : 1 080 pixels
Display aspect ratio : 4:3
Frame rate mode : Constant
Frame rate : 24.000 FPS
Color space : YUV
Chroma subsampling : 4:2:0
Bit depth : 10 bits
Bits/(Pixel*Frame) : 0.034
Stream size : 1.18 GiB (86%)
Default : Yes
Forced : No

Audio

ID : 2
Format : AAC LC SBR
Format/Info : Advanced Audio Codec Low Complexity with Spectral Band Replication
Commercial name : HE-AAC
Format settings : Explicit
Codec ID : A_AAC-2
Duration : 2 h 14 min
Bit rate : 192 kb/s
Channel(s) : 6 channels
Channel layout : C L R Ls Rs LFE
Sampling rate : 48.0 kHz
Frame rate : 23.438 FPS (2048 SPF)
Compression mode : Lossy
Delay relative to video : 23 ms
Stream size : 189 MiB (13%)
Language : English
Default : Yes
Forced : No

Text #1

ID : 3
Format : UTF-8
Codec ID : S_TEXT/UTF8
Codec ID/Info : UTF-8 Plain Text
Duration : 2 h 13 min
Bit rate : 97 b/s
Count of elements : 2404
Stream size : 95.4 KiB (0%)
Title : English
Language : English
Default : No
Forced : No

Text #2

ID : 4
Format : UTF-8
Codec ID : S_TEXT/UTF8
Codec ID/Info : UTF-8 Plain Text
Duration : 2 h 13 min
Bit rate : 101 b/s
Count of elements : 1866
Stream size : 99.5 KiB (0%)
Title : Arabic
Language : Arabic
Default : No
Forced : No

Text #3

ID : 5
Format : UTF-8
Codec ID : S_TEXT/UTF8
Codec ID/Info : UTF-8 Plain Text
Duration : 2 h 13 min
Bit rate : 63 b/s
Count of elements : 1879
Stream size : 62.0 KiB (0%)
Title : Chinese Simplified
Language : Chinese
Default : No
Forced : No

Text #4

ID : 6
Format : UTF-8
Codec ID : S_TEXT/UTF8
Codec ID/Info : UTF-8 Plain Text
Duration : 2 h 13 min
Bit rate : 62 b/s
Count of elements : 1884
Stream size : 61.3 KiB (0%)
Title : Chinese Traditional
Language : Chinese
Default : No
Forced : No

Text #5

ID : 7
Format : UTF-8
Codec ID : S_TEXT/UTF8
Codec ID/Info : UTF-8 Plain Text
Duration : 2 h 13 min
Bit rate : 61 b/s
Count of elements : 1996
Stream size : 59.9 KiB (0%)
Title : Czech
Language : Czech
Default : No
Forced : No

Text #6

ID : 8
Format : UTF-8
Codec ID : S_TEXT/UTF8
Codec ID/Info : UTF-8 Plain Text
Duration : 2 h 13 min
Bit rate : 59 b/s
Count of elements : 1745
Stream size : 58.0 KiB (0%)
Title : Danish
Language : Danish
Default : No
Forced : No

Text #7

ID : 9
Format : UTF-8
Codec ID : S_TEXT/UTF8
Codec ID/Info : UTF-8 Plain Text
Duration : 2 h 13 min
Bit rate : 56 b/s
Count of elements : 1793
Stream size : 55.2 KiB (0%)
Title : Dutch
Language : Dutch
Default : No
Forced : No

Text #8

ID : 10
Format : UTF-8
Codec ID : S_TEXT/UTF8
Codec ID/Info : UTF-8 Plain Text
Duration : 2 h 13 min
Bit rate : 55 b/s
Count of elements : 1746
Stream size : 54.2 KiB (0%)
Title : Finnish
Language : Finnish
Default : No
Forced : No

Text #9

ID : 11
Format : UTF-8
Codec ID : S_TEXT/UTF8
Codec ID/Info : UTF-8 Plain Text
Duration : 2 h 13 min
Bit rate : 59 b/s
Count of elements : 1821
Stream size : 58.3 KiB (0%)
Title : French
Language : French
Default : No
Forced : No

Text #10

ID : 12
Format : UTF-8
Codec ID : S_TEXT/UTF8
Codec ID/Info : UTF-8 Plain Text
Duration : 2 h 13 min
Bit rate : 61 b/s
Count of elements : 1739
Stream size : 59.8 KiB (0%)
Title : German
Language : German
Default : No
Forced : No

Text #11

ID : 13
Format : UTF-8
Codec ID : S_TEXT/UTF8
Codec ID/Info : UTF-8 Plain Text
Duration : 2 h 13 min
Bit rate : 102 b/s
Count of elements : 1832
Stream size : 100 KiB (0%)
Title : Greek
Language : Greek
Default : No
Forced : No

Text #12

ID : 14
Format : UTF-8
Codec ID : S_TEXT/UTF8
Codec ID/Info : UTF-8 Plain Text
Duration : 2 h 13 min
Bit rate : 94 b/s
Count of elements : 1854
Stream size : 92.2 KiB (0%)
Title : Hebrew
Language : Hebrew
Default : No
Forced : No

Text #13

ID : 15
Format : UTF-8
Codec ID : S_TEXT/UTF8
Codec ID/Info : UTF-8 Plain Text
Duration : 2 h 13 min
Bit rate : 62 b/s
Count of elements : 1831
Stream size : 60.7 KiB (0%)
Title : Hungarian
Language : Hungarian
Default : No
Forced : No

Text #14

ID : 16
Format : UTF-8
Codec ID : S_TEXT/UTF8
Codec ID/Info : UTF-8 Plain Text
Duration : 2 h 13 min
Bit rate : 58 b/s
Count of elements : 1864
Stream size : 57.1 KiB (0%)
Title : Indonesian
Language : Indonesian
Default : No
Forced : No

Text #15

ID : 17
Format : UTF-8
Codec ID : S_TEXT/UTF8
Codec ID/Info : UTF-8 Plain Text
Duration : 2 h 13 min
Bit rate : 59 b/s
Count of elements : 1742
Stream size : 58.6 KiB (0%)
Title : Italian
Language : Italian
Default : No
Forced : No

Text #16

ID : 18
Format : UTF-8
Codec ID : S_TEXT/UTF8
Codec ID/Info : UTF-8 Plain Text
Duration : 2 h 13 min
Bit rate : 58 b/s
Count of elements : 1863
Stream size : 57.3 KiB (0%)
Title : Japanese
Language : Japanese
Default : No
Forced : No

Text #17

ID : 19
Format : UTF-8
Codec ID : S_TEXT/UTF8
Codec ID/Info : UTF-8 Plain Text
Duration : 2 h 13 min
Bit rate : 70 b/s
Count of elements : 1851
Stream size : 69.1 KiB (0%)
Title : Korean
Language : Korean
Default : No
Forced : No

Text #18

ID : 20
Format : UTF-8
Codec ID : S_TEXT/UTF8
Codec ID/Info : UTF-8 Plain Text
Duration : 2 h 13 min
Bit rate : 56 b/s
Count of elements : 1701
Stream size : 55.0 KiB (0%)
Title : Norwegian Bokmal
Language : Norwegian Bokmal
Default : No
Forced : No

Text #19

ID : 21
Format : UTF-8
Codec ID : S_TEXT/UTF8
Codec ID/Info : UTF-8 Plain Text
Duration : 2 h 13 min
Bit rate : 56 b/s
Count of elements : 1817
Stream size : 54.8 KiB (0%)
Title : Polish
Language : Polish
Default : No
Forced : No

Text #20

ID : 22
Format : UTF-8
Codec ID : S_TEXT/UTF8
Codec ID/Info : UTF-8 Plain Text
Duration : 2 h 13 min
Bit rate : 62 b/s
Count of elements : 1787
Stream size : 60.9 KiB (0%)
Title : Portuguese
Language : Portuguese
Default : No
Forced : No

Text #21

ID : 23
Format : UTF-8
Codec ID : S_TEXT/UTF8
Codec ID/Info : UTF-8 Plain Text
Duration : 2 h 13 min
Bit rate : 63 b/s
Count of elements : 1829
Stream size : 62.0 KiB (0%)
Title : Brazilian Portuguese
Language : Portuguese
Default : No
Forced : No

Text #22

ID : 24
Format : UTF-8
Codec ID : S_TEXT/UTF8
Codec ID/Info : UTF-8 Plain Text
Duration : 2 h 13 min
Bit rate : 68 b/s
Count of elements : 1797
Stream size : 67.1 KiB (0%)
Title : Romanian
Language : Romanian
Default : No
Forced : No

Text #23

ID : 25
Format : UTF-8
Codec ID : S_TEXT/UTF8
Codec ID/Info : UTF-8 Plain Text
Duration : 2 h 13 min
Bit rate : 99 b/s
Count of elements : 1878
Stream size : 96.8 KiB (0%)
Title : Russian
Language : Russian
Default : No
Forced : No

Text #24

ID : 26
Format : UTF-8
Codec ID : S_TEXT/UTF8
Codec ID/Info : UTF-8 Plain Text
Duration : 2 h 13 min
Bit rate : 61 b/s
Count of elements : 1848
Stream size : 59.6 KiB (0%)
Title : Spanish
Language : Spanish
Default : No
Forced : No

Text #25

ID : 27
Format : UTF-8
Codec ID : S_TEXT/UTF8
Codec ID/Info : UTF-8 Plain Text
Duration : 2 h 13 min
Bit rate : 60 b/s
Count of elements : 1729
Stream size : 58.9 KiB (0%)
Title : European Spanish
Language : Spanish
Default : No
Forced : No

Text #26

ID : 28
Format : UTF-8
Codec ID : S_TEXT/UTF8
Codec ID/Info : UTF-8 Plain Text
Duration : 2 h 13 min
Bit rate : 62 b/s
Count of elements : 1826
Stream size : 61.0 KiB (0%)
Title : Swedish
Language : Swedish
Default : No
Forced : No

Text #27

ID : 29
Format : UTF-8
Codec ID : S_TEXT/UTF8
Codec ID/Info : UTF-8 Plain Text
Duration : 2 h 13 min
Bit rate : 159 b/s
Count of elements : 1878
Stream size : 156 KiB (0%)
Title : Thai
Language : Thai
Default : No
Forced : No

Text #28

ID : 30
Format : UTF-8
Codec ID : S_TEXT/UTF8
Codec ID/Info : UTF-8 Plain Text
Duration : 2 h 13 min
Bit rate : 60 b/s
Count of elements : 1848
Stream size : 58.7 KiB (0%)
Title : Turkish
Language : Turkish
Default : No
Forced : No

Text #29

ID : 31
Format : UTF-8
Codec ID : S_TEXT/UTF8
Codec ID/Info : UTF-8 Plain Text
Duration : 2 h 13 min
Bit rate : 87 b/s
Count of elements : 1743
Stream size : 85.6 KiB (0%)
Title : Vietnamese
Language : Vietnamese
Default : No
Forced : No