General

Unique ID : 162048000654792275530469270492617546727 (0x79E94F47C5D08114F1F06F4852F29BE7)
Complete name : /home/30nama/movies/k/Kartoos_1999_1080p_WEB-DL_AC3_KHN_30NAMA.mkv
Format : Matroska
Format version : Version 4
File size : 8.85 GiB
Duration : 2 h 6 min
Overall bit rate : 10.0 Mb/s
Movie name : Kartoos.1999.1080p.AMZN.WEB-DL.DD+2.0.H.264-KHN
Encoded date : UTC 2020-07-18 14:15:34
Writing application : mkvmerge v43.0.0 ('The Quartermaster') 64-bit
Writing library : libebml v1.3.10 + libmatroska v1.5.2

Video

ID : 1
Format : AVC
Format/Info : Advanced Video Codec
Format profile : High@L4
Format settings : CABAC / 4 Ref Frames
Format settings, CABAC : Yes
Format settings, ReFrames : 4 frames
Codec ID : V_MPEG4/ISO/AVC
Duration : 2 h 6 min
Bit rate : 9 809 kb/s
Width : 1 920 pixels
Height : 816 pixels
Display aspect ratio : 2.35:1
Frame rate mode : Constant
Frame rate : 25.000 FPS
Color space : YUV
Chroma subsampling : 4:2:0
Bit depth : 8 bits
Scan type : Progressive
Bits/(Pixel*Frame) : 0.250
Stream size : 8.65 GiB (98%)
Default : Yes
Forced : No
Color range : Limited
Color primaries : BT.709
Transfer characteristics : BT.709
Matrix coefficients : BT.709

Audio

ID : 2
Format : E-AC-3
Format/Info : Enhanced AC-3
Commercial name : Dolby Digital Plus
Codec ID : A_EAC3
Duration : 2 h 6 min
Bit rate mode : Constant
Bit rate : 224 kb/s
Channel(s) : 2 channels
Channel layout : L R
Sampling rate : 48.0 kHz
Frame rate : 31.250 FPS (1536 SPF)
Compression mode : Lossy
Stream size : 202 MiB (2%)
Title : Hindi
Language : Hindi
Service kind : Complete Main
Default : No
Forced : No

Text

ID : 3
Format : UTF-8
Codec ID : S_TEXT/UTF8
Codec ID/Info : UTF-8 Plain Text
Duration : 2 h 4 min
Bit rate : 54 b/s
Count of elements : 1449
Stream size : 49.4 KiB (0%)
Title : English (SDH)
Language : English
Default : No
Forced : No