General

Unique ID : 209058912500402775953857025761017220312 (0x9D47482F5A78FB95960D4C269C6E4CD8)
Complete name : /home/30nama/movies/l/Lection_2019_1080p_WEB-DL_YIFY_30NAMA.mkv
Format : Matroska
Format version : Version 4
File size : 3.24 GiB
Duration : 1 h 38 min
Overall bit rate : 4 707 kb/s
Encoded date : UTC 2020-06-30 04:12:36
Writing application : mkvmerge v35.0.0 ('All The Love In The World') 64-bit
Writing library : libebml v1.3.9 + libmatroska v1.5.2

Video

ID : 2
Format : AVC
Format/Info : Advanced Video Codec
Format profile : High@L4
Format settings : CABAC / 5 Ref Frames
Format settings, CABAC : Yes
Format settings, ReFrames : 5 frames
Codec ID : V_MPEG4/ISO/AVC
Duration : 1 h 38 min
Bit rate : 4 513 kb/s
Width : 1 916 pixels
Height : 792 pixels
Display aspect ratio : 2.40:1
Frame rate mode : Constant
Frame rate : 23.976 FPS
Color space : YUV
Chroma subsampling : 4:2:0
Bit depth : 8 bits
Scan type : Progressive
Bits/(Pixel*Frame) : 0.124
Stream size : 3.11 GiB (96%)
Language : English
Default : Yes
Forced : No
Color range : Limited
Color primaries : BT.709
Transfer characteristics : BT.709
Matrix coefficients : BT.709

Audio

ID : 1
Format : AC-3
Format/Info : Audio Coding 3
Commercial name : Dolby Digital
Codec ID : A_AC3
Duration : 1 h 38 min
Bit rate mode : Constant
Bit rate : 192 kb/s
Channel(s) : 2 channels
Channel layout : L R
Sampling rate : 48.0 kHz
Frame rate : 31.250 FPS (1536 SPF)
Bit depth : 16 bits
Compression mode : Lossy
Stream size : 135 MiB (4%)
Service kind : Complete Main
Default : Yes
Forced : No

Menu

00:00:00.000 : en:Chapter 1
00:09:42.207 : en:Chapter 2
00:19:59.532 : en:Chapter 3
00:29:33.147 : en:Chapter 4
00:39:14.144 : en:Chapter 5
00:51:01.184 : en:Chapter 6
01:01:39.905 : en:Chapter 7
01:12:50.783 : en:Chapter 8
01:21:30.343 : en:Chapter 9
01:35:03.447 : en:Chapter 10