General

Unique ID : 186757017426611474167193011084139809923 (0x8C8017DD2D30F182BDB0B960ED59CC83)
Complete name : /movies/m/Men_in_Black_International_2019_1080p_BluRay_GECKOS_30NAMA.mkv
Format : Matroska
Format version : Version 4
File size : 8.74 GiB
Duration : 1 h 54 min
Overall bit rate : 10.9 Mb/s
Encoded date : UTC 2019-08-23 03:17:19
Writing application : mkvmerge v8.3.0 ('Over the Horizon') 64bit
Writing library : libebml v1.3.1 + libmatroska v1.4.2

Video

ID : 1
Format : AVC
Format/Info : Advanced Video Codec
Format profile : High@L4.1
Format settings : CABAC / 4 Ref Frames
Format settings, CABAC : Yes
Format settings, ReFrames : 4 frames
Codec ID : V_MPEG4/ISO/AVC
Duration : 1 h 54 min
Bit rate : 9 393 kb/s
Width : 1 920 pixels
Height : 960 pixels
Display aspect ratio : 2.000
Frame rate mode : Constant
Frame rate : 23.976 (24000/1001) FPS
Color space : YUV
Chroma subsampling : 4:2:0
Bit depth : 8 bits
Scan type : Progressive
Bits/(Pixel*Frame) : 0.213
Stream size : 7.53 GiB (86%)
Writing library : x264 core 158 r2984 3759fcb
Encoding settings : cabac=1 / ref=4 / deblock=1:-3:-3 / analyse=0x3:0x133 / me=umh / subme=8 / psy=1 / psy_rd=1.00:0.00 / mixed_ref=1 / me_range=16 / chroma_me=1 / trellis=1 / 8x8dct=1 / cqm=0 / deadzone=21,11 / fast_pskip=0 / chroma_qp_offset=-2 / threads=30 / lookahead_threads=5 / sliced_threads=0 / nr=0 / decimate=1 / interlaced=0 / bluray_compat=0 / constrained_intra=0 / bframes=3 / b_pyramid=2 / b_adapt=1 / b_bias=0 / direct=3 / weightb=1 / open_gop=0 / weightp=2 / keyint=250 / keyint_min=23 / scenecut=40 / intra_refresh=0 / rc_lookahead=50 / rc=2pass / mbtree=1 / bitrate=9393 / ratetol=1.0 / qcomp=0.60 / qpmin=0 / qpmax=69 / qpstep=4 / cplxblur=20.0 / qblur=0.5 / vbv_maxrate=62500 / vbv_bufsize=78125 / nal_hrd=none / filler=0 / ip_ratio=1.40 / aq=1:1.00
Language : English
Default : Yes
Forced : No

Audio

ID : 2
Format : DTS
Format/Info : Digital Theater Systems
Codec ID : A_DTS
Duration : 1 h 54 min
Bit rate mode : Constant
Bit rate : 1 509 kb/s
Channel(s) : 6 channels
Channel layout : C L R Ls Rs LFE
Sampling rate : 48.0 kHz
Frame rate : 93.750 FPS (512 SPF)
Bit depth : 24 bits
Compression mode : Lossy
Stream size : 1.21 GiB (14%)
Language : English
Default : Yes
Forced : No

Menu

00:00:00.000 : en:00:00:00.000
00:07:58.687 : en:00:07:58.687
00:15:33.099 : en:00:15:33.099
00:20:09.583 : en:00:20:09.583
00:27:17.135 : en:00:27:17.135
00:34:29.651 : en:00:34:29.651
00:46:10.267 : en:00:46:10.267
00:50:32.029 : en:00:50:32.029
00:59:01.204 : en:00:59:01.204
01:03:12.914 : en:01:03:12.914
01:10:51.414 : en:01:10:51.414
01:14:35.930 : en:01:14:35.930
01:25:31.209 : en:01:25:31.209
01:28:49.574 : en:01:28:49.574
01:34:29.247 : en:01:34:29.247
01:43:31.831 : en:01:43:31.831