General

Unique ID : 36629118784664326275722777450005914702 (0x1B8E82FCD4A8400123C859E4CF6FE44E)
Complete name : /movies/m/Men_in_Black_International_2019_10bit_1080p_x265_BluRay_Tigole_30NAMA.mkv
Format : Matroska
Format version : Version 4
File size : 5.44 GiB
Duration : 1 h 54 min
Overall bit rate : 6 786 kb/s
Movie name : Men In Black: International
Encoded date : UTC 2019-08-25 22:39:27
Writing application : mkvmerge v32.0.0 ('Astral Progressions') 64-bit
Writing library : libebml v1.3.7 + libmatroska v1.5.0

Video

ID : 1
Format : HEVC
Format/Info : High Efficiency Video Coding
Format profile : Main 10@L4@Main
Codec ID : V_MPEGH/ISO/HEVC
Duration : 1 h 54 min
Bit rate : 6 308 kb/s
Width : 1 920 pixels
Height : 960 pixels
Display aspect ratio : 2.000
Frame rate mode : Constant
Frame rate : 23.976 (24000/1001) FPS
Color space : YUV
Chroma subsampling : 4:2:0
Bit depth : 10 bits
Bits/(Pixel*Frame) : 0.143
Stream size : 5.06 GiB (93%)
Writing library : x265 3.0_Au+18-768ab38fd5fd:[Windows][GCC 8.3.0][64 bit] 10bit
Encoding settings : cpuid=1111039 / frame-threads=3 / numa-pools=8 / wpp / no-pmode / no-pme / no-psnr / no-ssim / log-level=2 / input-csp=1 / input-res=1920x960 / interlace=0 / total-frames=165192 / level-idc=0 / high-tier=1 / uhd-bd=0 / ref=4 / no-allow-non-conformance / no-repeat-headers / annexb / no-aud / no-hrd / info / hash=0 / no-temporal-layers / open-gop / min-keyint=23 / keyint=250 / gop-lookahead=0 / bframes=8 / b-adapt=2 / b-pyramid / bframe-bias=0 / rc-lookahead=25 / lookahead-slices=4 / scenecut=40 / radl=0 / no-splice / no-intra-refresh / ctu=64 / min-cu-size=8 / rect / no-amp / max-tu-size=32 / tu-inter-depth=1 / tu-intra-depth=1 / limit-tu=0 / rdoq-level=2 / dynamic-rd=0.00 / no-ssim-rd / signhide / no-tskip / nr-intra=0 / nr-inter=0 / no-constrained-intra / strong-intra-smoothing / max-merge=3 / limit-refs=3 / limit-modes / me=3 / subme=3 / merange=57 / temporal-mvp / weightp / no-weightb / no-analyze-src-pics / deblock=0:0 / no-sao / no-sao-non-deblock / rd=4 / no-early-skip / rskip / no-fast-intra / no-tskip-fast / no-cu-lossless / no-b-intra / no-splitrd-skip / rdpenalty=0 / psy-rd=2.00 / psy-rdoq=1.00 / no-rd-refine / no-lossless / cbqpoffs=0 / crqpoffs=0 / rc=crf / crf=18.0 / qcomp=0.60 / qpstep=4 / stats-write=0 / stats-read=0 / ipratio=1.40 / pbratio=1.30 / aq-mode=3 / aq-strength=1.00 / cutree / zone-count=0 / no-strict-cbr / qg-size=32 / no-rc-grain / qpmax=69 / qpmin=0 / no-const-vbv / sar=0 / overscan=0 / videoformat=5 / range=0 / colorprim=2 / transfer=2 / colormatrix=2 / chromaloc=0 / display-window=0 / max-cll=0,0 / min-luma=0 / max-luma=1023 / log2-max-poc-lsb=8 / vui-timing-info / vui-hrd-info / slices=1 / no-opt-qp-pps / no-opt-ref-list-length-pps / no-multi-pass-opt-rps / scenecut-bias=0.05 / no-opt-cu-delta-qp / aq-motion / no-hdr / no-hdr-opt / no-dhdr10-opt / no-idr-recovery-sei / analysis-reuse-level=5 / scale-factor=0 / refine-intra=0 / refine-inter=0 / refine-mv=0 / refine-ctu-distortion=0 / no-limit-sao / ctu-info=0 / no-lowpass-dct / refine-analysis-type=0 / copy-pic=1 / max-ausize-factor=1.0 / no-dynamic-refine / no-single-sei / no-hevc-aq / no-svt / qp-adaptation-range=1.00
Default : Yes
Forced : No

Audio

ID : 2
Format : AAC LC
Format/Info : Advanced Audio Codec Low Complexity
Codec ID : A_AAC-2
Duration : 1 h 54 min
Bit rate : 458 kb/s
Channel(s) : 6 channels
Channel layout : C L R Ls Rs LFE
Sampling rate : 48.0 kHz
Frame rate : 46.875 FPS (1024 SPF)
Compression mode : Lossy
Delay relative to video : 20 ms
Stream size : 376 MiB (7%)
Language : English
Default : Yes
Forced : No

Text #1

ID : 3
Format : VobSub
Muxing mode : zlib
Codec ID : S_VOBSUB
Codec ID/Info : Picture based subtitle format used on DVDs
Duration : 1 h 44 min
Bit rate : 13.2 kb/s
Count of elements : 1780
Stream size : 9.89 MiB (0%)
Language : English
Default : No
Forced : No

Text #2

ID : 4
Format : VobSub
Muxing mode : zlib
Codec ID : S_VOBSUB
Codec ID/Info : Picture based subtitle format used on DVDs
Duration : 1 h 53 min
Bit rate : 8 236 b/s
Count of elements : 1471
Stream size : 6.67 MiB (0%)
Language : French
Default : No
Forced : No

Text #3

ID : 5
Format : VobSub
Muxing mode : zlib
Codec ID : S_VOBSUB
Codec ID/Info : Picture based subtitle format used on DVDs
Duration : 1 h 53 min
Bit rate : 9 967 b/s
Count of elements : 1427
Stream size : 8.10 MiB (0%)
Language : Spanish
Default : No
Forced : No

Menu

00:00:00.000 : en:Chapter 01
00:07:58.686 : en:Chapter 02
00:15:33.098 : en:Chapter 03
00:20:09.374 : en:Chapter 04
00:27:16.968 : en:Chapter 05
00:34:29.650 : en:Chapter 06
00:46:10.267 : en:Chapter 07
00:50:32.029 : en:Chapter 08
00:59:01.204 : en:Chapter 09
01:03:12.914 : en:Chapter 10
01:10:51.247 : en:Chapter 11
01:14:35.679 : en:Chapter 12
01:25:31.209 : en:Chapter 13
01:28:49.574 : en:Chapter 14
01:34:29.246 : en:Chapter 15
01:43:31.788 : en:Chapter 16