General

Unique ID : 149690833260113625214958106585416740060 (0x709D67E3A969EACB2535AA5D5BF22CDC)
Complete name : /movies/m/Men_in_Black_International_2019_720p_BrRip_MkvCage_30NAMA.mkv
Format : Matroska
Format version : Version 4
File size : 1.05 GiB
Duration : 1 h 54 min
Overall bit rate : 1 309 kb/s
Movie name : Men.in.Black.International.2019.720p.BRRip.x264-MkvCage.com
Encoded date : UTC 2019-08-23 08:19:05
Writing application : mkvmerge v33.1.0 ('Primrose') 64-bit
Writing library : libebml v1.3.7 + libmatroska v1.5.0

Video

ID : 1
Format : AVC
Format/Info : Advanced Video Codec
Format profile : High@L4.1
Format settings : CABAC / 10 Ref Frames
Format settings, CABAC : Yes
Format settings, ReFrames : 10 frames
Codec ID : V_MPEG4/ISO/AVC
Duration : 1 h 54 min
Bit rate : 1 207 kb/s
Width : 1 280 pixels
Height : 640 pixels
Display aspect ratio : 2.000
Frame rate mode : Constant
Frame rate : 23.976 (24000/1001) FPS
Color space : YUV
Chroma subsampling : 4:2:0
Bit depth : 8 bits
Scan type : Progressive
Bits/(Pixel*Frame) : 0.061
Stream size : 991 MiB (92%)
Writing library : x264 core 157 r2935 545de2f
Encoding settings : cabac=1 / ref=10 / deblock=1:-1:-1 / analyse=0x3:0x133 / me=umh / subme=10 / psy=1 / psy_rd=1.00:0.10 / mixed_ref=1 / me_range=24 / chroma_me=1 / trellis=2 / 8x8dct=1 / cqm=0 / deadzone=21,11 / fast_pskip=1 / chroma_qp_offset=-3 / threads=20 / lookahead_threads=3 / sliced_threads=0 / nr=0 / decimate=1 / interlaced=0 / bluray_compat=0 / constrained_intra=0 / bframes=8 / b_pyramid=2 / b_adapt=2 / b_bias=0 / direct=3 / weightb=1 / open_gop=0 / weightp=2 / keyint=250 / keyint_min=23 / scenecut=40 / intra_refresh=0 / rc_lookahead=60 / rc=2pass / mbtree=1 / bitrate=1207 / ratetol=1.0 / qcomp=0.60 / qpmin=0 / qpmax=69 / qpstep=4 / cplxblur=20.0 / qblur=0.5 / ip_ratio=1.40 / aq=1:1.00
Default : Yes
Forced : No

Audio

ID : 2
Format : AAC LC SBR
Format/Info : Advanced Audio Codec Low Complexity with Spectral Band Replication
Commercial name : HE-AAC
Format settings : Explicit
Codec ID : A_AAC-2
Duration : 1 h 54 min
Bit rate : 100.0 kb/s
Channel(s) : 2 channels
Channel layout : L R
Sampling rate : 48.0 kHz
Frame rate : 23.438 FPS (2048 SPF)
Compression mode : Lossy
Delay relative to video : 43 ms
Stream size : 82.1 MiB (8%)
Language : English
Default : Yes
Forced : No

Text #1

ID : 3
Format : UTF-8
Codec ID : S_TEXT/UTF8
Codec ID/Info : UTF-8 Plain Text
Duration : 1 h 44 min
Bit rate : 73 b/s
Count of elements : 1778
Stream size : 56.7 KiB (0%)
Title : HI
Language : English
Default : Yes
Forced : No

Text #2

ID : 4
Format : UTF-8
Codec ID : S_TEXT/UTF8
Codec ID/Info : UTF-8 Plain Text
Duration : 1 h 43 min
Bit rate : 69 b/s
Count of elements : 1536
Stream size : 52.4 KiB (0%)
Language : English
Default : No
Forced : No

Menu

00:00:00.000 : en:00:00:00.000
00:07:58.687 : en:00:07:58.687
00:15:33.099 : en:00:15:33.099
00:20:09.583 : en:00:20:09.583
00:27:17.135 : en:00:27:17.135
00:34:29.651 : en:00:34:29.651
00:46:10.267 : en:00:46:10.267
00:50:32.029 : en:00:50:32.029
00:59:01.204 : en:00:59:01.204
01:03:12.914 : en:01:03:12.914
01:10:51.414 : en:01:10:51.414
01:14:35.930 : en:01:14:35.930
01:25:31.209 : en:01:25:31.209
01:28:49.574 : en:01:28:49.574
01:34:29.247 : en:01:34:29.247
01:43:31.831 : en:01:43:31.831