General

Unique ID : 175111330626688153182925270012891519038 (0x83BD372CAE97A97F97052FF43670583E)
Complete name : /movies/n/Nausicaa_of_the_Valley_of_the_Wind_1984_1080p_x265_BrRip_AnimeRG_30NAMA.mkv
Format : Matroska
Format version : Version 4
File size : 1.85 GiB
Duration : 1 h 57 min
Overall bit rate : 2 264 kb/s
Encoded date : UTC 2016-03-01 01:33:33
Writing application : mkvmerge v8.2.0 ('World of Adventure') 64bit
Writing library : libebml v1.3.1 + libmatroska v1.4.2
Attachments : ????????????_GBK_0.TTF / ARIALN.TTF / CronosPro-Semibold.ttf / CronosPro-SemiboldIt.ttf / DFGKyks4-Arrietty.ttf / DFPGothUW5-Arrietty.ttf / FOT-MatisseMinoriProB-En.otf / LTe53507.ttf / Memo-Condensed_Italic.ttf / Memo-Condensed_Normal.ttf / msgothic.ttf / PPETRIAL.otf / Profile-Regular.otf / ????_GBK_0.TTF

Video

ID : 1
Format : HEVC
Format/Info : High Efficiency Video Coding
Format profile : Main@L5@Main
Codec ID : V_MPEGH/ISO/HEVC
Duration : 1 h 57 min
Bit rate : 1 784 kb/s
Width : 1 920 pixels
Height : 1 036 pixels
Display aspect ratio : 1.85:1
Frame rate mode : Constant
Frame rate : 23.976 (24000/1001) FPS
Color space : YUV
Chroma subsampling : 4:2:0
Bit depth : 8 bits
Bits/(Pixel*Frame) : 0.037
Stream size : 1.46 GiB (79%)
Default : Yes
Forced : No

Audio #1

ID : 2
Format : AAC LC
Format/Info : Advanced Audio Codec Low Complexity
Codec ID : A_AAC-2
Duration : 1 h 57 min
Bit rate : 60.5 kb/s
Channel(s) : 2 channels
Channel layout : L R
Sampling rate : 48.0 kHz
Frame rate : 46.875 FPS (1024 SPF)
Compression mode : Lossy
Delay relative to video : 20 ms
Stream size : 50.6 MiB (3%)
Language : English
Default : Yes
Forced : No

Audio #2

ID : 3
Format : AAC LC
Format/Info : Advanced Audio Codec Low Complexity
Codec ID : A_AAC-2
Duration : 1 h 57 min
Bit rate : 60.8 kb/s
Channel(s) : 2 channels
Channel layout : L R
Sampling rate : 48.0 kHz
Frame rate : 46.875 FPS (1024 SPF)
Compression mode : Lossy
Delay relative to video : 20 ms
Stream size : 50.9 MiB (3%)
Language : Chinese
Default : No
Forced : No

Audio #3

ID : 4
Format : AAC LC
Format/Info : Advanced Audio Codec Low Complexity
Codec ID : A_AAC-2
Duration : 1 h 57 min
Bit rate : 56.8 kb/s
Channel(s) : 2 channels
Channel layout : L R
Sampling rate : 48.0 kHz
Frame rate : 46.875 FPS (1024 SPF)
Compression mode : Lossy
Delay relative to video : 20 ms
Stream size : 47.6 MiB (3%)
Language : Chinese
Default : No
Forced : No

Audio #4

ID : 5
Format : AAC LC
Format/Info : Advanced Audio Codec Low Complexity
Codec ID : A_AAC-2
Duration : 1 h 57 min
Bit rate : 54.6 kb/s
Channel(s) : 2 channels
Channel layout : L R
Sampling rate : 48.0 kHz
Frame rate : 46.875 FPS (1024 SPF)
Compression mode : Lossy
Delay relative to video : 20 ms
Stream size : 45.7 MiB (2%)
Language : French
Default : No
Forced : No

Audio #5

ID : 6
Format : AAC LC
Format/Info : Advanced Audio Codec Low Complexity
Codec ID : A_AAC-2
Duration : 1 h 57 min
Bit rate : 61.4 kb/s
Channel(s) : 2 channels
Channel layout : L R
Sampling rate : 48.0 kHz
Frame rate : 46.875 FPS (1024 SPF)
Compression mode : Lossy
Delay relative to video : 20 ms
Stream size : 51.4 MiB (3%)
Language : German
Default : No
Forced : No

Audio #6

ID : 7
Format : AAC LC
Format/Info : Advanced Audio Codec Low Complexity
Codec ID : A_AAC-2
Duration : 1 h 57 min
Bit rate : 64.8 kb/s
Channel(s) : 2 channels
Channel layout : L R
Sampling rate : 48.0 kHz
Frame rate : 46.875 FPS (1024 SPF)
Compression mode : Lossy
Delay relative to video : 20 ms
Stream size : 54.2 MiB (3%)
Language : Japanese
Default : No
Forced : No

Audio #7

ID : 8
Format : AAC LC
Format/Info : Advanced Audio Codec Low Complexity
Codec ID : A_AAC-2
Duration : 1 h 57 min
Bit rate : 63.8 kb/s
Channel(s) : 2 channels
Channel layout : L R
Sampling rate : 48.0 kHz
Frame rate : 46.875 FPS (1024 SPF)
Compression mode : Lossy
Delay relative to video : 20 ms
Stream size : 53.4 MiB (3%)
Language : Korean
Default : No
Forced : No

Text #1

ID : 9
Format : ASS
Codec ID : S_TEXT/ASS
Codec ID/Info : Advanced Sub Station Alpha
Duration : 1 h 55 min
Bit rate : 59 b/s
Count of elements : 1149
Compression mode : Lossless
Stream size : 50.2 KiB (0%)
Title : ASS
Language : English
Default : No
Forced : No

Text #2

ID : 10
Format : ASS
Codec ID : S_TEXT/ASS
Codec ID/Info : Advanced Sub Station Alpha
Duration : 1 h 55 min
Bit rate : 74 b/s
Count of elements : 1070
Compression mode : Lossless
Stream size : 63.3 KiB (0%)
Title : ASS
Language : Finnish
Default : No
Forced : No

Text #3

ID : 11
Format : ASS
Codec ID : S_TEXT/ASS
Codec ID/Info : Advanced Sub Station Alpha
Duration : 1 h 55 min
Bit rate : 63 b/s
Count of elements : 963
Compression mode : Lossless
Stream size : 54.0 KiB (0%)
Title : ASS
Language : French
Default : No
Forced : No

Text #4

ID : 12
Format : ASS
Codec ID : S_TEXT/ASS
Codec ID/Info : Advanced Sub Station Alpha
Duration : 1 h 55 min
Bit rate : 70 b/s
Count of elements : 983
Compression mode : Lossless
Stream size : 59.9 KiB (0%)
Title : ASS
Language : Romanian
Default : No
Forced : No

Text #5

ID : 13
Format : ASS
Codec ID : S_TEXT/ASS
Codec ID/Info : Advanced Sub Station Alpha
Duration : 1 h 53 min
Bit rate : 81 b/s
Count of elements : 1159
Compression mode : Lossless
Stream size : 67.3 KiB (0%)
Title : ASS
Language : Spanish
Default : No
Forced : No

Text #6

ID : 14
Format : VobSub
Muxing mode : zlib
Codec ID : S_VOBSUB
Codec ID/Info : Picture based subtitle format used on DVDs
Duration : 1 h 55 min
Bit rate : 2 629 b/s
Count of elements : 1035
Stream size : 2.17 MiB (0%)
Title : VOBSUB
Language : Chinese
Default : No
Forced : No

Text #7

ID : 15
Format : VobSub
Muxing mode : zlib
Codec ID : S_VOBSUB
Codec ID/Info : Picture based subtitle format used on DVDs
Duration : 1 h 56 min
Bit rate : 1 704 b/s
Count of elements : 1100
Stream size : 1.43 MiB (0%)
Title : VOBSUB
Language : Korean
Default : No
Forced : No

Menu

00:00:00.000 : en:00:00:00.000
00:01:59.995 : en:00:01:59.995
00:07:43.046 : en:00:07:43.046
00:12:10.104 : en:00:12:10.104
00:18:39.452 : en:00:18:39.452
00:23:34.747 : en:00:23:34.747
00:28:38.717 : en:00:28:38.717
00:33:30.175 : en:00:33:30.175
00:38:15.251 : en:00:38:15.251
00:44:57.111 : en:00:44:57.111
00:49:53.032 : en:00:49:53.032
00:54:40.611 : en:00:54:40.611
00:58:27.421 : en:00:58:27.421
01:01:19.426 : en:01:01:19.426
01:07:53.653 : en:01:07:53.653
01:13:51.177 : en:01:13:51.177
01:18:39.131 : en:01:18:39.131
01:24:27.896 : en:01:24:27.896
01:30:49.861 : en:01:30:49.861
01:34:39.340 : en:01:34:39.340
01:40:10.129 : en:01:40:10.129
01:46:06.860 : en:01:46:06.860
01:49:44.036 : en:01:49:44.036
01:52:08.930 : en:01:52:08.930
01:55:04.105 : en:01:55:04.105