General

Unique ID : 245515615286853146195532373293948358837 (0xB8B496685658ABBF80D4A9648F1E50B5)
Complete name : /movies/n/Nausicaa_of_the_Valley_of_the_Wind_1984_HMC_10bit_1080p_x265_BluRay_Tigole_30NAMA.mkv
Format : Matroska
Format version : Version 4
File size : 3.46 GiB
Duration : 1 h 57 min
Overall bit rate : 4 227 kb/s
Encoded date : UTC 2017-11-24 00:40:53
Writing application : mkvmerge v14.0.0 ('Flow') 64bit
Writing library : libebml v1.3.4 + libmatroska v1.4.5

Video

ID : 1
Format : HEVC
Format/Info : High Efficiency Video Coding
Format profile : Main 10@L4@Main
Codec ID : V_MPEGH/ISO/HEVC
Duration : 1 h 57 min
Bit rate : 4 001 kb/s
Width : 1 920 pixels
Height : 1 040 pixels
Display aspect ratio : 1.85:1
Frame rate mode : Constant
Frame rate : 23.976 (24000/1001) FPS
Color space : YUV
Chroma subsampling : 4:2:0
Bit depth : 10 bits
Bits/(Pixel*Frame) : 0.084
Stream size : 3.27 GiB (95%)
Writing library : x265 2.5+22-8db95a1da9f8:[Windows][GCC 7.1.0][64 bit] 10bit
Encoding settings : cpuid=1173503 / frame-threads=3 / numa-pools=8 / wpp / no-pmode / no-pme / no-psnr / no-ssim / log-level=2 / input-csp=1 / input-res=1920x1040 / interlace=0 / total-frames=168360 / level-idc=0 / high-tier=1 / uhd-bd=0 / ref=4 / no-allow-non-conformance / no-repeat-headers / annexb / no-aud / no-hrd / info / hash=0 / no-temporal-layers / open-gop / min-keyint=23 / keyint=250 / bframes=4 / b-adapt=2 / b-pyramid / bframe-bias=0 / rc-lookahead=25 / lookahead-slices=4 / scenecut=40 / no-intra-refresh / ctu=64 / min-cu-size=8 / rect / no-amp / max-tu-size=32 / tu-inter-depth=1 / tu-intra-depth=1 / limit-tu=0 / rdoq-level=2 / dynamic-rd=0.00 / no-ssim-rd / signhide / no-tskip / nr-intra=0 / nr-inter=0 / no-constrained-intra / strong-intra-smoothing / max-merge=3 / limit-refs=3 / limit-modes / me=3 / subme=3 / merange=57 / temporal-mvp / weightp / no-weightb / no-analyze-src-pics / deblock=0:0 / sao / no-sao-non-deblock / rd=4 / no-early-skip / rskip / no-fast-intra / no-tskip-fast / no-cu-lossless / no-b-intra / no-splitrd-skip / rdpenalty=0 / psy-rd=2.00 / psy-rdoq=1.00 / no-rd-refine / analysis-reuse-mode=0 / no-lossless / cbqpoffs=0 / crqpoffs=0 / rc=abr / bitrate=4000 / qcomp=0.60 / qpstep=4 / stats-write=0 / stats-read=2 / cplxblur=20.0 / qblur=0.5 / ipratio=1.40 / pbratio=1.30 / aq-mode=2 / aq-strength=1.00 / cutree / zone-count=0 / no-strict-cbr / qg-size=32 / no-rc-grain / qpmax=69 / qpmin=0 / no-const-vbv / sar=0 / overscan=0 / videoformat=5 / range=0 / colorprim=2 / transfer=2 / colormatrix=2 / chromaloc=0 / display-window=0 / max-cll=0,0 / min-luma=0 / max-luma=1023 / log2-max-poc-lsb=8 / vui-timing-info / vui-hrd-info / slices=1 / opt-qp-pps / opt-ref-list-length-pps / no-multi-pass-opt-rps / scenecut-bias=0.05 / no-opt-cu-delta-qp / no-aq-motion / no-hdr / no-hdr-opt / no-dhdr10-opt / analysis-reuse-level=5 / scale-factor=0 / refine-intra=0 / refine-inter=0 / refine-mv=0 / no-limit-sao / ctu-info=0
Default : Yes
Forced : No

Audio #1

ID : 2
Format : AAC LC
Format/Info : Advanced Audio Codec Low Complexity
Codec ID : A_AAC-2
Duration : 1 h 57 min
Bit rate : 109 kb/s
Channel(s) : 2 channels
Channel layout : L R
Sampling rate : 48.0 kHz
Frame rate : 46.875 FPS (1024 SPF)
Compression mode : Lossy
Delay relative to video : 20 ms
Stream size : 91.3 MiB (3%)
Language : Japanese
Default : Yes
Forced : No

Audio #2

ID : 3
Format : AAC LC
Format/Info : Advanced Audio Codec Low Complexity
Codec ID : A_AAC-2
Duration : 1 h 57 min
Bit rate : 96.0 kb/s
Channel(s) : 2 channels
Channel layout : L R
Sampling rate : 48.0 kHz
Frame rate : 46.875 FPS (1024 SPF)
Compression mode : Lossy
Delay relative to video : 20 ms
Stream size : 79.1 MiB (2%)
Title : Dubbed
Language : English
Default : No
Forced : No

Text #1

ID : 4
Format : VobSub
Muxing mode : zlib
Codec ID : S_VOBSUB
Codec ID/Info : Picture based subtitle format used on DVDs
Duration : 1 h 56 min
Bit rate : 6 323 b/s
Count of elements : 1154
Stream size : 5.29 MiB (0%)
Language : English
Default : Yes
Forced : No

Text #2

ID : 5
Format : VobSub
Muxing mode : zlib
Codec ID : S_VOBSUB
Codec ID/Info : Picture based subtitle format used on DVDs
Duration : 1 h 55 min
Bit rate : 6 197 b/s
Count of elements : 1035
Stream size : 5.12 MiB (0%)
Language : Chinese
Default : No
Forced : No

Text #3

ID : 6
Format : VobSub
Muxing mode : zlib
Codec ID : S_VOBSUB
Codec ID/Info : Picture based subtitle format used on DVDs
Duration : 1 h 56 min
Bit rate : 6 338 b/s
Count of elements : 966
Stream size : 5.30 MiB (0%)
Language : French
Default : No
Forced : No

Text #4

ID : 7
Format : VobSub
Muxing mode : zlib
Codec ID : S_VOBSUB
Codec ID/Info : Picture based subtitle format used on DVDs
Duration : 1 h 53 min
Bit rate : 5 716 b/s
Count of elements : 1366
Stream size : 4.62 MiB (0%)
Language : Japanese
Default : No
Forced : No

Text #5

ID : 8
Format : VobSub
Muxing mode : zlib
Codec ID : S_VOBSUB
Codec ID/Info : Picture based subtitle format used on DVDs
Duration : 1 h 56 min
Bit rate : 4 266 b/s
Count of elements : 1101
Stream size : 3.57 MiB (0%)
Language : Korean
Default : No
Forced : No

Menu

00:00:00.000 : en:Chapter 01
00:01:59.994 : en:Chapter 02
00:07:43.045 : en:Chapter 03
00:12:10.104 : en:Chapter 04
00:18:39.451 : en:Chapter 05
00:23:34.413 : en:Chapter 06
00:28:38.717 : en:Chapter 07
00:33:30.174 : en:Chapter 08
00:38:15.251 : en:Chapter 09
00:44:56.735 : en:Chapter 10
00:49:53.031 : en:Chapter 11
00:54:40.610 : en:Chapter 12
00:58:27.420 : en:Chapter 13
01:01:19.425 : en:Chapter 14
01:07:53.652 : en:Chapter 15
01:13:51.176 : en:Chapter 16
01:18:39.131 : en:Chapter 17
01:24:27.896 : en:Chapter 18
01:30:49.861 : en:Chapter 19
01:34:39.340 : en:Chapter 20
01:40:10.129 : en:Chapter 21
01:46:06.860 : en:Chapter 22
01:49:44.035 : en:Chapter 23
01:52:08.930 : en:Chapter 24
01:55:04.105 : en:Chapter 25
01:57:01.014 : en:Chapter 26