General

Unique ID : 201782972402643481823869942823985100872 (0x97CDFCA448A55053303EEEC0C6A43848)
Complete name : /movies/p/Paradise_Hills_2019_1080p_BluRay_AdiT_30NAMA.mkv
Format : Matroska
Format version : Version 4
File size : 5.78 GiB
Duration : 1 h 34 min
Overall bit rate : 8 752 kb/s
Movie name : Paradise Hills (2019) 1080p Bluray AC3 x264 - AdiT
Encoded date : UTC 2019-12-28 11:09:56
Writing application : mkvmerge v41.0.0 ('Smarra') 64-bit
Writing library : libebml v1.3.9 + libmatroska v1.5.2

Video

ID : 1
Format : AVC
Format/Info : Advanced Video Codec
Format profile : High@L4.1
Format settings : CABAC / 4 Ref Frames
Format settings, CABAC : Yes
Format settings, ReFrames : 4 frames
Codec ID : V_MPEG4/ISO/AVC
Duration : 1 h 34 min
Bit rate : 8 081 kb/s
Width : 1 920 pixels
Height : 960 pixels
Display aspect ratio : 2.000
Frame rate mode : Constant
Frame rate : 23.976 (24000/1001) FPS
Color space : YUV
Chroma subsampling : 4:2:0
Bit depth : 8 bits
Scan type : Progressive
Bits/(Pixel*Frame) : 0.183
Stream size : 5.34 GiB (92%)
Writing library : x264 core 158 r2988 7817004
Encoding settings : cabac=1 / ref=4 / deblock=1:-2:-2 / analyse=0x3:0x133 / me=umh / subme=10 / psy=1 / psy_rd=1.00:0.00 / mixed_ref=1 / me_range=48 / chroma_me=1 / trellis=2 / 8x8dct=1 / cqm=0 / deadzone=21,11 / fast_pskip=0 / chroma_qp_offset=-2 / threads=18 / lookahead_threads=2 / sliced_threads=0 / nr=0 / decimate=0 / interlaced=0 / bluray_compat=0 / constrained_intra=0 / bframes=5 / b_pyramid=2 / b_adapt=2 / b_bias=0 / direct=1 / weightb=0 / open_gop=0 / weightp=2 / keyint=240 / keyint_min=23 / scenecut=40 / intra_refresh=0 / rc_lookahead=120 / rc=crf / mbtree=0 / crf=20.1 / qcomp=0.55 / qpmin=0 / qpmax=69 / qpstep=4 / vbv_maxrate=32000 / vbv_bufsize=38000 / crf_max=0.0 / nal_hrd=none / filler=0 / ip_ratio=1.30 / pb_ratio=1.20 / aq=3:0.80
Language : English
Default : Yes
Forced : No
Color range : Limited
Color primaries : BT.709
Transfer characteristics : BT.709
Matrix coefficients : BT.709

Audio

ID : 2
Format : AC-3
Format/Info : Audio Coding 3
Commercial name : Dolby Digital
Codec ID : A_AC3
Duration : 1 h 34 min
Bit rate mode : Constant
Bit rate : 640 kb/s
Channel(s) : 6 channels
Channel layout : L R C LFE Ls Rs
Sampling rate : 48.0 kHz
Frame rate : 31.250 FPS (1536 SPF)
Bit depth : 16 bits
Compression mode : Lossy
Stream size : 433 MiB (7%)
Language : English
Service kind : Complete Main
Default : Yes
Forced : No

Text #1

ID : 3
Format : UTF-8
Codec ID : S_TEXT/UTF8
Codec ID/Info : UTF-8 Plain Text
Duration : 31 s 700 ms
Bit rate : 15 b/s
Count of elements : 1
Stream size : 61.0 Bytes (0%)
Language : English
Default : Yes
Forced : Yes

Text #2

ID : 4
Format : PGS
Codec ID : S_HDMV/PGS
Codec ID/Info : Picture based subtitle format used on BDs/HD-DVDs
Duration : 1 h 28 min
Bit rate : 31.6 kb/s
Count of elements : 1896
Stream size : 19.9 MiB (0%)
Language : English
Default : No
Forced : No

Menu

00:00:00.000 : en:Chapter 01
00:08:12.117 : en:Chapter 02
00:15:35.017 : en:Chapter 03
00:24:04.610 : en:Chapter 04
00:31:03.028 : en:Chapter 05
00:39:12.600 : en:Chapter 06
00:46:48.806 : en:Chapter 07
00:56:15.706 : en:Chapter 08
01:03:43.945 : en:Chapter 09
01:09:15.568 : en:Chapter 10
01:16:38.677 : en:Chapter 11
01:25:29.958 : en:Chapter 12