General

Unique ID : 172234423511774597712306443509467005298 (0x819324B3DE134DBFE3BFDAD4E4C14172)
Complete name : /movies/p/Paradise_Hills_2019_1080p_BluRay_Full_HD_AC3_EA_30NAMA.mkv
Format : Matroska
Format version : Version 4
File size : 11.8 GiB
Duration : 1 h 34 min
Overall bit rate : 17.8 Mb/s
Movie name : Alice Waddington - Paradise Hills (2019)
Encoded date : UTC 2019-12-22 18:39:58
Writing application : mkvmerge v41.0.0 ('Smarra') 64-bit
Writing library : libebml v1.3.9 + libmatroska v1.5.2

Video

ID : 1
Format : AVC
Format/Info : Advanced Video Codec
Format profile : High@L4.1
Format settings : CABAC / 4 Ref Frames
Format settings, CABAC : Yes
Format settings, ReFrames : 4 frames
Codec ID : V_MPEG4/ISO/AVC
Duration : 1 h 34 min
Bit rate : 16.8 Mb/s
Width : 1 920 pixels
Height : 960 pixels
Display aspect ratio : 2.000
Frame rate mode : Constant
Frame rate : 23.976 (24000/1001) FPS
Color space : YUV
Chroma subsampling : 4:2:0
Bit depth : 8 bits
Scan type : Progressive
Bits/(Pixel*Frame) : 0.380
Stream size : 11.1 GiB (94%)
Title : -EA
Writing library : x264 core 158 r2984+49 6932f4a t_mod_New [0-bit@all X86_64]
Encoding settings : cabac=1 / ref=4 / deblock=1:-3:-3 / analyse=0x3:0x133 / me=umh / subme=10 / psy=1 / fade_compensate=0.00 / psy_rd=1.02:0.00 / mixed_ref=1 / me_range=32 / chroma_me=1 / trellis=2 / 8x8dct=1 / cqm=0 / deadzone=21,11 / fast_pskip=0 / chroma_qp_offset=-2 / threads=18 / lookahead_threads=4 / sliced_threads=0 / nr=0 / decimate=0 / interlaced=0 / bluray_compat=0 / constrained_intra=0 / fgo=0 / bframes=10 / b_pyramid=2 / b_adapt=2 / b_bias=0 / direct=3 / weightb=1 / open_gop=0 / weightp=2 / keyint=240 / keyint_min=23 / scenecut=40 / intra_refresh=0 / rc_lookahead=60 / rc=crf / mbtree=0 / crf=16.8000 / qcomp=0.65 / qpmin=0:0:0 / qpmax=69:69:69 / qpstep=4 / vbv_maxrate=62500 / vbv_bufsize=78125 / crf_max=0.0 / nal_hrd=none / filler=0 / ip_ratio=1.30 / pb_ratio=1.20 / aq=3:0.85 / aq-sensitivity=10.00 / aq-factor=1.00:1.00:1.00 / aq2=0 / aq3=0 / zones=0,10500,crf=23/4625,5842,crf=16.2/5843,6070,crf=16.2/9504,10041,crf=16.2/21781,22417,crf=16.2/50881,54700,crf=16.2/67188,69908,crf=16.2/85976,95500,crf=16.2/99050,105142,crf=16.2/105935,123070,crf=16.2/124077,125300,crf=16.2/128270,136082,crf=23
Language : English
Default : Yes
Forced : No
Color range : Limited
Color primaries : BT.709
Transfer characteristics : BT.709
Matrix coefficients : BT.709

Audio

ID : 2
Format : E-AC-3
Format/Info : Enhanced AC-3
Commercial name : Dolby Digital Plus
Codec ID : A_EAC3
Duration : 1 h 34 min
Bit rate mode : Constant
Bit rate : 1 023 kb/s
Channel(s) : 6 channels
Channel layout : L R C LFE Ls Rs
Sampling rate : 48.0 kHz
Frame rate : 93.750 FPS (512 SPF)
Compression mode : Lossy
Stream size : 692 MiB (6%)
Language : English
Service kind : Complete Main
Default : Yes
Forced : No

Text #1

ID : 3
Format : UTF-8
Codec ID : S_TEXT/UTF8
Codec ID/Info : UTF-8 Plain Text
Duration : 1 h 28 min
Bit rate : 40 b/s
Count of elements : 969
Stream size : 26.2 KiB (0%)
Title : srt
Language : English
Default : No
Forced : No

Text #2

ID : 4
Format : PGS
Muxing mode : zlib
Codec ID : S_HDMV/PGS
Codec ID/Info : Picture based subtitle format used on BDs/HD-DVDs
Duration : 1 h 28 min
Bit rate : 31.6 kb/s
Count of elements : 1896
Stream size : 19.9 MiB (0%)
Title : sup
Language : English
Default : No
Forced : No

Menu

00:00:00.000 : :Chapter 01
00:08:12.117 : :Chapter 02
00:15:35.017 : :Chapter 03
00:24:04.610 : :Chapter 04
00:31:03.028 : :Chapter 05
00:39:12.600 : :Chapter 06
00:46:48.806 : :Chapter 07
00:56:15.706 : :Chapter 08
01:03:43.945 : :Chapter 09
01:09:15.568 : :Chapter 10
01:16:38.677 : :Chapter 11
01:25:29.958 : :Chapter 12