General

Unique ID : 233252033360904010139593204419829169344 (0xAF7AB522E857D35DBDD384EE80A7FCC0)
Complete name : /movies/p/Paradise_Hills_2019_10bit_1080p_BrRip_6CH_PSA_30NAMA.mkv
Format : Matroska
Format version : Version 4
File size : 1.33 GiB
Duration : 1 h 34 min
Overall bit rate : 2 010 kb/s
Movie name : PSArips.com | Paradise.Hills.2019.1080p.10bit.BluRay.6CH.x265.HEVC-PSA
Encoded date : UTC 2019-12-22 20:58:21
Writing application : mkvmerge v41.0.0 ('Smarra') 64-bit
Writing library : libebml v1.3.9 + libmatroska v1.5.2

Video

ID : 1
Format : HEVC
Format/Info : High Efficiency Video Coding
Format profile : Main 10@L4@Main
Codec ID : V_MPEGH/ISO/HEVC
Duration : 1 h 34 min
Bit rate : 1 794 kb/s
Width : 1 920 pixels
Height : 960 pixels
Display aspect ratio : 2.000
Frame rate mode : Constant
Frame rate : 23.976 (24000/1001) FPS
Color space : YUV
Chroma subsampling : 4:2:0
Bit depth : 10 bits
Bits/(Pixel*Frame) : 0.041
Stream size : 1.19 GiB (89%)
Default : Yes
Forced : No
Color range : Limited
Color primaries : BT.709
Transfer characteristics : BT.709
Matrix coefficients : BT.709

Audio

ID : 2
Format : AAC LC SBR
Format/Info : Advanced Audio Codec Low Complexity with Spectral Band Replication
Commercial name : HE-AAC
Format settings : Explicit
Codec ID : A_AAC-2
Duration : 1 h 34 min
Bit rate : 214 kb/s
Channel(s) : 6 channels
Channel layout : C L R Ls Rs LFE
Sampling rate : 48.0 kHz
Frame rate : 23.438 FPS (2048 SPF)
Compression mode : Lossy
Delay relative to video : 23 ms
Stream size : 145 MiB (11%)
Language : English
Default : Yes
Forced : No

Text

ID : 3
Format : UTF-8
Codec ID : S_TEXT/UTF8
Codec ID/Info : UTF-8 Plain Text
Duration : 1 h 28 min
Bit rate : 40 b/s
Count of elements : 965
Stream size : 26.4 KiB (0%)
Language : English
Default : Yes
Forced : No

Menu

00:00:00.000 : :Chapter 1
00:08:12.000 : :Chapter 2
00:15:35.200 : :Chapter 3
00:24:04.600 : :Chapter 4
00:31:03.200 : :Chapter 5
00:39:12.800 : :Chapter 6
00:46:49.000 : :Chapter 7
00:56:15.800 : :Chapter 8
01:03:44.200 : :Chapter 9
01:09:15.400 : :Chapter 10
01:16:39.000 : :Chapter 11
01:25:30.200 : :Chapter 12