General

Unique ID : 252089605062203530511615022449291645675 (0xBDA6B120BD2457B3951A7FECDDC752EB)
Complete name : /home/30nama/movies/r/Renoir_2012_720p_BrRip_30nama_30NAMA.mkv
Format : Matroska
Format version : Version 4
File size : 948 MiB
Duration : 1 h 51 min
Overall bit rate : 1 187 kb/s
Encoded date : UTC 2020-09-03 14:27:15
Writing application : mkvmerge v9.6.0 ('Slave To Your Mind') 64bit
Writing library : libebml v1.3.4 + libmatroska v1.4.5

Video

ID : 1
Format : AVC
Format/Info : Advanced Video Codec
Format profile : High@L4.1
Format settings : CABAC / 5 Ref Frames
Format settings, CABAC : Yes
Format settings, ReFrames : 5 frames
Codec ID : V_MPEG4/ISO/AVC
Duration : 1 h 51 min
Bit rate : 1 100 kb/s
Width : 1 280 pixels
Height : 688 pixels
Display aspect ratio : 1.85:1
Frame rate mode : Constant
Frame rate : 23.976 (24000/1001) FPS
Color space : YUV
Chroma subsampling : 4:2:0
Bit depth : 8 bits
Scan type : Progressive
Bits/(Pixel*Frame) : 0.052
Stream size : 878 MiB (93%)
Writing library : x264 core 148 r2721 72d53ab
Encoding settings : cabac=1 / ref=5 / deblock=1:-1:-1 / analyse=0x3:0x113 / me=hex / subme=8 / psy=1 / psy_rd=1.00:0.00 / mixed_ref=1 / me_range=16 / chroma_me=1 / trellis=2 / 8x8dct=1 / cqm=0 / deadzone=21,11 / fast_pskip=1 / chroma_qp_offset=-2 / threads=48 / lookahead_threads=5 / sliced_threads=0 / nr=0 / decimate=1 / interlaced=0 / bluray_compat=0 / constrained_intra=0 / bframes=3 / b_pyramid=2 / b_adapt=1 / b_bias=0 / direct=3 / weightb=1 / open_gop=0 / weightp=2 / keyint=250 / keyint_min=23 / scenecut=40 / intra_refresh=0 / rc_lookahead=50 / rc=2pass / mbtree=1 / bitrate=1100 / ratetol=1.0 / qcomp=0.60 / qpmin=0 / qpmax=69 / qpstep=4 / cplxblur=20.0 / qblur=0.5 / vbv_maxrate=78125 / vbv_bufsize=62500 / nal_hrd=none / filler=0 / ip_ratio=1.40 / aq=1:1.00
Default : Yes
Forced : No

Audio

ID : 2
Format : AAC LC SBR
Format/Info : Advanced Audio Codec Low Complexity with Spectral Band Replication
Commercial name : HE-AAC
Format settings : Explicit
Codec ID : A_AAC-2
Duration : 1 h 51 min
Bit rate : 79.7 kb/s
Channel(s) : 2 channels
Channel layout : L R
Sampling rate : 48.0 kHz
Frame rate : 23.438 FPS (2048 SPF)
Compression mode : Lossy
Delay relative to video : 31 ms
Stream size : 63.7 MiB (7%)
Language : French
Default : Yes
Forced : No

Text #1

ID : 3
Format : UTF-8
Codec ID : S_TEXT/UTF8
Codec ID/Info : UTF-8 Plain Text
Duration : 1 h 50 min
Bit rate : 26 b/s
Count of elements : 897
Stream size : 21.3 KiB (0%)
Language : English
Default : No
Forced : No

Text #2

ID : 4
Format : PGS
Muxing mode : zlib
Codec ID : S_HDMV/PGS
Codec ID/Info : Picture based subtitle format used on BDs/HD-DVDs
Duration : 1 h 50 min
Bit rate : 6 391 b/s
Count of elements : 1794
Stream size : 5.06 MiB (1%)
Language : English
Default : No
Forced : No

Menu

00:00:00.000 : :Chapter 1
00:09:54.385 : :Chapter 2
00:19:10.983 : :Chapter 3
00:31:00.150 : :Chapter 4
00:41:44.627 : :Chapter 5
00:50:08.589 : :Chapter 6
01:00:37.926 : :Chapter 7
01:09:47.725 : :Chapter 8
01:21:41.146 : :Chapter 9
01:29:20.897 : :Chapter 10
01:40:52.463 : :Chapter 11
01:47:35.365 : :Chapter 12